TAIFUN With Song
Навигация
А знаете ли Вы, что...
Почему в радуге выделяют 7 цветов?
«Хотя многоцветный спектр радуги непрерывен, по традиции в нём выделяют 7 цветов. Считают, что первым выбрал это число Исаак Ньютон. Причём первоначально он различал только пять цветов — красный, жёлтый, зелёный, голубой и фиолетовый, о чём и написал в своей «Оптике». Но впоследствии, стремясь создать соответствие между числом цветов спектра и числом основных тонов музыкальной гаммы, Ньютон добавил ещё два цвета.»
 
Опции темы

  #1
Старый 16.09.2015, 21:48
sergych
Координатор
Досье
 
Аватар для sergych
Релиз Billy Ocean - Love Zone


1986 - Billy Ocean - Love Zone




Исполнитель/Artist: Billy Ocean
Альбом/Album: Love Zone
Год/Year: 1986
Жанр/Genre: Contemporary R&B, dance-pop, soul, pop rock
Страна/Country: Япония
Рекорд-лейбл/Record label: Arista Records
Номер в каталоге/Catalogue #: JRCD 8409
Формат/Format: Free Lossless Audio Codec (*.flac)
Качество/Quality: Lossless
Тип рипа/RIP Type: image+.cue
Продолжительность/Length: 00:45:01
Источник/Source: Собственный рип
Размер/Size: 286.5 MB

Сканы в комплекте

Треклист

01. When The Going Gets Tough, The Tough Get Going [0:05:45.00]
02. Love Zone [0:05:36.40]
03. Without You [0:05:02.55]
04. There'll Be Sad Songs (To Make You Cry) [0:04:54.62]
05. Bitter Sweet [0:04:57.55]
06. It's Never Too Late To Try [0:04:54.28]
07. Showdown [0:04:58.25]
08. Promise Me [0:04:35.70]
09. Love Is Forever [0:04:15.02]
[свернуть]

youtube.com

[свернуть]

EAC лог

Exact Audio Copy V1.0 beta 3 from 29. August 2011

EAC extraction logfile from 16. September 2015, 22:39

Billy Ocean / Love Zone

Used drive : ATAPI iHAS124 D Adapter: 0 ID: 2

Read mode : Secure
Utilize accurate stream : Yes
Defeat audio cache : Yes
Make use of C2 pointers : No

Read offset correction : 6
Overread into Lead-In and Lead-Out : No
Fill up missing offset samples with silence : Yes
Delete leading and trailing silent blocks : No
Null samples used in CRC calculations : Yes
Used interface : Installed external ASPI interface

Used output format : User Defined Encoder
Selected bitrate : 1024 kBit/s
Quality : High
Add ID3 tag : No
Command line compressor : C:\Program Files (x86)\Exact Audio Copy\Flac\flac.exe
Additional command line options : -6 -V -T "ARTIST=%artist%" -T "TITLE=%title%" -T "ALBUM=%albumtitle%" -T "DATE=%year%" -T "TRACKNUMBER=%tracknr%" -T "GENRE=%genre%" -T "COMMENT=%comment%" -T "BAND=%albuminterpret%" -T "COMPOSER=%composer%" %haslyrics%--tag-from-file=LYRICS="%lyricsfile%"%haslyrics% -T "DISCNUMBER=%cdnumber%" -T "TOTALDISCS=%totalcds%" -T "TOTALTRACKS=%numtracks%" %hascover%--picture="%coverfile%"%hascover% %source% -o %dest%


TOC of the extracted CD

Track | Start | Length | Start sector | End sector
---------------------------------------------------------
1 | 0:00.00 | 5:45.00 | 0 | 25874
2 | 5:45.00 | 5:36.40 | 25875 | 51114
3 | 11:21.40 | 5:02.55 | 51115 | 73819
4 | 16:24.20 | 4:54.62 | 73820 | 95931
5 | 21:19.07 | 4:57.55 | 95932 | 118261
6 | 26:16.62 | 4:54.28 | 118262 | 140339
7 | 31:11.15 | 4:58.25 | 140340 | 162714
8 | 36:09.40 | 4:35.70 | 162715 | 183409
9 | 40:45.35 | 4:15.02 | 183410 | 202536


Range status and errors

Selected range

Filename C:\mm\Billy Ocean\1986 - Love Zone [JRCD 8409]\Billy Ocean - Love Zone.wav

Peak level 86.4 %
Extraction speed 8.9 X
Range quality 99.9 %
Test CRC F85C8A54
Copy CRC F85C8A54
Copy OK

No errors occurred


AccurateRip summary

Track 1 accurately ripped (confidence 16) [7D30B7D7] (AR v2)
Track 2 accurately ripped (confidence 16) [23E171C1] (AR v2)
Track 3 accurately ripped (confidence 16) [EE974DB9] (AR v2)
Track 4 accurately ripped (confidence 16) [EEE5B77D] (AR v2)
Track 5 accurately ripped (confidence 16) [1D356B10] (AR v2)
Track 6 accurately ripped (confidence 16) [89889B1F] (AR v2)
Track 7 accurately ripped (confidence 16) [2B52FE3E] (AR v2)
Track 8 accurately ripped (confidence 16) [000CED4E] (AR v2)
Track 9 accurately ripped (confidence 16) [31C020C0] (AR v2)

All tracks accurately ripped

End of status report
[свернуть]

Файл CUE

REM GENRE Pop
REM DATE 1986
REM DISCID 880A8C09
REM COMMENT "ExactAudioCopy v1.0b3"
PERFORMER "Billy Ocean"
TITLE "Love Zone"
FILE "Billy Ocean - Love Zone.flac" WAVE
TRACK 01 AUDIO
TITLE "When The Going Gets Tough, The Tough Get Going"
PERFORMER "Billy Ocean"
INDEX 01 00:00:00
TRACK 02 AUDIO
TITLE "Love Zone"
PERFORMER "Billy Ocean"
INDEX 00 05:44:35
INDEX 01 05:45:00
TRACK 03 AUDIO
TITLE "Without You"
PERFORMER "Billy Ocean"
INDEX 00 11:21:10
INDEX 01 11:21:40
TRACK 04 AUDIO
TITLE "There'll Be Sad Songs (To Make You Cry)"
PERFORMER "Billy Ocean"
INDEX 00 16:23:65
INDEX 01 16:24:20
TRACK 05 AUDIO
TITLE "Bitter Sweet"
PERFORMER "Billy Ocean"
INDEX 00 21:17:40
INDEX 01 21:19:07
TRACK 06 AUDIO
TITLE "It's Never Too Late To Try"
PERFORMER "Billy Ocean"
INDEX 01 26:16:62
TRACK 07 AUDIO
TITLE "Showdown"
PERFORMER "Billy Ocean"
INDEX 01 31:11:15
TRACK 08 AUDIO
TITLE "Promise Me"
PERFORMER "Billy Ocean"
INDEX 01 36:09:40
TRACK 09 AUDIO
TITLE "Love Is Forever"
PERFORMER "Billy Ocean"
INDEX 00 40:43:02
INDEX 01 40:45:35
[свернуть]

Лог проверки качества

AUDIOCHECKER v2.0 beta (build 457) - by Dester -
~~~~~~~~~~~~~~~~~~~~~~~~~~~~~~~~~~
-=== НЕ РЕДАКТИРУЙТЕ ЭТОТ ФАЙЛ! ===-

Путь: ...\1986 - Love Zone [JRCD 8409]

1 -=- Billy Ocean - Love Zone.flac -=- CDDA (100%)

92158564
[свернуть]

Спектр частот

[свернуть]

Скачать Billy Ocean - Love Zone



password: sergych
[свернуть]
My opinion of release: 10/10
__________________
TAIFUN.Wings of Soul

Вверх
2 пользователя(ей) сказали cпасибо:
Chert (01.10.2015), danielzhito (06.09.2018)
Похожие темы
Тема Автор Раздел Ответов Последнее сообщение
Альбом Billy Ocean - Suddenly sergych Зарубежная Поп-Музыка 0 22.03.2014 21:12
Альбом Billy Ocean - Time To Move On sergych Зарубежная Поп-Музыка 0 17.01.2014 19:49
Альбом Billy McLaughlin - Acoustic Original (The Best Of Billy McLaughlin) fly123 New age 0 28.09.2011 16:46
Сборник Billy Ocean - Ultimate Collection PUPOKIN Disco 0 15.08.2011 09:02
Альбом Billy Ocean - The Very Best Of PUPOKIN R&B 0 02.07.2010 08:57


Метки
1986 , billy ocean , contemporary r&b , dance-pop , love zone , pop rock , soul

Опции темы

Ваши права в разделе
Вы не можете создавать новые темы
Вы не можете отвечать в темах
Вы не можете прикреплять вложения
Вы не можете редактировать свои сообщения

Быстрый переход



Текущее время: 04:50. Часовой пояс GMT +3.
Powered by vBulletin® Version 3.8.10
Copyright ©2000 - 2018, vBulletin Solutions, Inc. Перевод: zCarot
© 2008 - 2018 Taifun With Song
Яндекс.Метрика