TAIFUN With Song
Навигация
Вернуться   TAIFUN With Song > Music (обменник) > Rock > Blues Rock
Расширенный поиск
Blues Rock К концу сороковых годов прошлого столетия в блюзе окончательно обосновалась электрогитара. Трудно сказать, что подтолкнуло многих блюзменов перейти с привычной акустической гитары на электрическую, но блюз с тех пор очень сильно изменился.

А знаете ли Вы, что...
Кто написал песню «Во поле берёза стояла»?
«Многие источники утверждают, что песню «Во поле берёза стояла» написал татарский поэт Нигмат Ибрагимов. Однако эта песня всё-таки является русской народной.»
 
Опции темы

  #1
Старый 08.05.2013, 07:38
sergych
Координатор
Досье
 
Аватар для sergych
Релиз Евгений Маргулис - Маргулис


2013 - Евгений Маргулис - Маргулис




Исполнитель/Artist: Евгений Маргулис
Альбом/Album: Маргулис
Год/Year: 2013
Жанр/Genre: blues rock, rock
Страна/Country: Russia
Рекорд-лейбл/Record label: Союз Мьюзик
Номер в каталоге/Catalogue #: SZCD 6161-13
Формат/Format: Free Lossless Audio Codec (*.flac)
Качество/Quality: Lossless
Тип рипа/RIP Type: tracks+.cue
Продолжительность/Length: 00:33:52
Источник/Source: Собственный рип
Размер/Size: 240.7 MB

Сканы в комплекте

Треклист

01 - Надоело(а)
02 - Курить
03 - Неботва
04 - Рок-н-ролл (Памяти СЕРГЕЯ КОВАГОЭ)
05 - Не надо так
06 - R.le.Kino
07 - Заносит
08 - Война
09 - Ловец
10 - I love u
11 - Спокойной ночи
[свернуть]

youtube.com

[свернуть]

EAC лог

Exact Audio Copy V1.0 beta 3 from 29. August 2011

EAC extraction logfile from 6. May 2013, 22:30

Евгений Маргулис / Маргулис

Used drive : ATAPI iHAS124 D Adapter: 0 ID: 2

Read mode : Secure
Utilize accurate stream : Yes
Defeat audio cache : Yes
Make use of C2 pointers : Yes

Read offset correction : 6
Overread into Lead-In and Lead-Out : No
Fill up missing offset samples with silence : Yes
Delete leading and trailing silent blocks : No
Null samples used in CRC calculations : Yes
Used interface : Installed external ASPI interface
Gap handling : Appended to previous track

Used output format : User Defined Encoder
Selected bitrate : 896 kBit/s
Quality : High
Add ID3 tag : No
Command line compressor : C:\Program Files (x86)\Exact Audio Copy\FLAC\FLAC.EXE
Additional command line options : -6 -V -T "ARTIST=%artist%" -T "TITLE=%title%" -T "ALBUM=%albumtitle%" -T "DATE=%year%" -T "TRACKNUMBER=%tracknr%" -T "GENRE=%genre%" -T "COMMENT=%comment%" -T "BAND=%albuminterpret%" -T "ALBUMARTIST=%albuminterpret%" -T "COMPOSER=%composer%" %haslyrics%--tag-from-file=LYRICS="%lyricsfile%"%haslyrics% -T "DISCNUMBER=%cdnumber%" -T "TOTALDISCS=%totalcds%" -T "TOTALTRACKS=%numtracks%" %hascover%--picture="%coverfile%"%hascover% %source% -o %dest%


TOC of the extracted CD

Track | Start | Length | Start sector | End sector
---------------------------------------------------------
1 | 0:00.00 | 3:04.50 | 0 | 13849
2 | 3:04.50 | 3:26.28 | 13850 | 29327
3 | 6:31.03 | 4:22.57 | 29328 | 49034
4 | 10:53.60 | 3:38.34 | 49035 | 65418
5 | 14:32.19 | 3:27.17 | 65419 | 80960
6 | 17:59.36 | 3:18.39 | 80961 | 95849
7 | 21:18.00 | 1:51.29 | 95850 | 104203
8 | 23:09.29 | 3:56.57 | 104204 | 121960
9 | 27:06.11 | 1:56.71 | 121961 | 130731
10 | 29:03.07 | 3:50.51 | 130732 | 148032
11 | 32:53.58 | 1:16.12 | 148033 | 153744


Track 1

Filename C:\mm\Маргулис Евгений\2013 - Маргулис\01 - Надоело(а).wav

Pre-gap length 0:00:02.00

Peak level 100.0 %
Extraction speed 6.9 X
Track quality 100.0 %
Test CRC AC5A93C3
Copy CRC AC5A93C3
Track not present in AccurateRip database
Copy OK

Track 2

Filename C:\mm\Маргулис Евгений\2013 - Маргулис\02 - Курить.wav

Pre-gap length 0:00:01.74

Peak level 100.0 %
Extraction speed 7.7 X
Track quality 100.0 %
Test CRC 3FF15197
Copy CRC 3FF15197
Track not present in AccurateRip database
Copy OK

Track 3

Filename C:\mm\Маргулис Евгений\2013 - Маргулис\03 - Неботва.wav

Pre-gap length 0:00:01.74

Peak level 100.0 %
Extraction speed 8.8 X
Track quality 100.0 %
Test CRC BFDE2463
Copy CRC BFDE2463
Track not present in AccurateRip database
Copy OK

Track 4

Filename C:\mm\Маргулис Евгений\2013 - Маргулис\04 - Рок-н-ролл (Памяти СЕРГЕЯ КОВАГОЭ).wav

Pre-gap length 0:00:01.74

Peak level 100.0 %
Extraction speed 9.2 X
Track quality 100.0 %
Test CRC D369C84D
Copy CRC D369C84D
Track not present in AccurateRip database
Copy OK

Track 5

Filename C:\mm\Маргулис Евгений\2013 - Маргулис\05 - Не надо так.wav

Pre-gap length 0:00:01.74

Peak level 100.0 %
Extraction speed 9.7 X
Track quality 100.0 %
Test CRC 560EB831
Copy CRC 560EB831
Track not present in AccurateRip database
Copy OK

Track 6

Filename C:\mm\Маргулис Евгений\2013 - Маргулис\06 - R.le.Kino.wav

Pre-gap length 0:00:01.74

Peak level 100.0 %
Extraction speed 7.7 X
Track quality 99.8 %
Test CRC D19F8DF3
Copy CRC D19F8DF3
Track not present in AccurateRip database
Copy OK

Track 7

Filename C:\mm\Маргулис Евгений\2013 - Маргулис\07 - Заносит.wav

Pre-gap length 0:00:01.74

Peak level 99.9 %
Extraction speed 9.0 X
Track quality 100.0 %
Test CRC 74B7D228
Copy CRC 74B7D228
Track not present in AccurateRip database
Copy OK

Track 8

Filename C:\mm\Маргулис Евгений\2013 - Маргулис\08 - Война.wav

Pre-gap length 0:00:01.74

Peak level 100.0 %
Extraction speed 8.9 X
Track quality 99.9 %
Test CRC 7512FE81
Copy CRC 7512FE81
Track not present in AccurateRip database
Copy OK

Track 9

Filename C:\mm\Маргулис Евгений\2013 - Маргулис\09 - Ловец.wav

Pre-gap length 0:00:01.74

Peak level 89.1 %
Extraction speed 6.6 X
Track quality 99.8 %
Test CRC 97C1A540
Copy CRC 97C1A540
Track not present in AccurateRip database
Copy OK

Track 10

Filename C:\mm\Маргулис Евгений\2013 - Маргулис\10 - I love u.wav

Pre-gap length 0:00:01.74

Peak level 100.0 %
Extraction speed 9.4 X
Track quality 99.9 %
Test CRC 9C96AE10
Copy CRC 9C96AE10
Track not present in AccurateRip database
Copy OK

Track 11

Filename C:\mm\Маргулис Евгений\2013 - Маргулис\11 - Спокойной ночи.wav

Peak level 96.2 %
Extraction speed 5.4 X
Track quality 99.7 %
Test CRC 5545ACFB
Copy CRC 5545ACFB
Track not present in AccurateRip database
Copy OK


None of the tracks are present in the AccurateRip database

No errors occurred

End of status report
[свернуть]

Файл CUE

REM GENRE Rock/Blues
REM DATE 2013
REM DISCID 9E08010B
REM COMMENT "ExactAudioCopy v1.0b3"
PERFORMER "Евгений Маргулис"
TITLE "Маргулис"
FILE "01 - Надоело(а).wav" WAVE
TRACK 01 AUDIO
TITLE "Надоело(а)"
PERFORMER "Евгений Маргулис"
INDEX 01 00:00:00
TRACK 02 AUDIO
TITLE "Курить"
PERFORMER "Евгений Маргулис"
INDEX 00 03:02:51
FILE "02 - Курить.wav" WAVE
INDEX 01 00:00:00
TRACK 03 AUDIO
TITLE "Неботва"
PERFORMER "Евгений Маргулис"
INDEX 00 03:24:29
FILE "03 - Неботва.wav" WAVE
INDEX 01 00:00:00
TRACK 04 AUDIO
TITLE "Рок-н-ролл (Памяти СЕРГЕЯ КОВАГОЭ)"
PERFORMER "Евгений Маргулис"
INDEX 00 04:20:58
FILE "04 - Рок-н-ролл (Памяти СЕРГЕЯ КОВАГОЭ).wav" WAVE
INDEX 01 00:00:00
TRACK 05 AUDIO
TITLE "Не надо так"
PERFORMER "Евгений Маргулис"
INDEX 00 03:36:35
FILE "05 - Не надо так.wav" WAVE
INDEX 01 00:00:00
TRACK 06 AUDIO
TITLE "R.le.Kino"
PERFORMER "Евгений Маргулис"
INDEX 00 03:25:18
FILE "06 - R.le.Kino.wav" WAVE
INDEX 01 00:00:00
TRACK 07 AUDIO
TITLE "Заносит"
PERFORMER "Евгений Маргулис"
INDEX 00 03:16:40
FILE "07 - Заносит.wav" WAVE
INDEX 01 00:00:00
TRACK 08 AUDIO
TITLE "Война"
PERFORMER "Евгений Маргулис"
INDEX 00 01:49:30
FILE "08 - Война.wav" WAVE
INDEX 01 00:00:00
TRACK 09 AUDIO
TITLE "Ловец"
PERFORMER "Евгений Маргулис"
INDEX 00 03:54:58
FILE "09 - Ловец.wav" WAVE
INDEX 01 00:00:00
TRACK 10 AUDIO
TITLE "I love u"
PERFORMER "Евгений Маргулис"
INDEX 00 01:54:72
FILE "10 - I love u.wav" WAVE
INDEX 01 00:00:00
FILE "11 - Спокойной ночи.wav" WAVE
TRACK 11 AUDIO
TITLE "Спокойной ночи"
PERFORMER "Евгений Маргулис"
INDEX 01 00:00:00
[свернуть]

Лог проверки качества

AUDIOCHECKER v2.0 beta (build 457) - by Dester -
~~~~~~~~~~~~~~~~~~~~~~~~~~~~~~~~~~
-=== НЕ РЕДАКТИРУЙТЕ ЭТОТ ФАЙЛ! ===-

Путь: ...\2013 - Маргулис

01 -=- 01 - Надоело(а).flac -=- CDDA (100%)
02 -=- 02 - Курить.flac -=- CDDA (100%)
03 -=- 03 - Неботва.flac -=- CDDA (100%)
04 -=- 04 - Рок-н-ролл (Памяти СЕРГЕЯ КОВАГОЭ).flac -=- CDDA (99%)
05 -=- 05 - Не надо так.flac -=- CDDA (100%)
06 -=- 06 - R.le.Kino.flac -=- CDDA (100%)
07 -=- 07 - Заносит.flac -=- CDDA (100%)
08 -=- 08 - Война.flac -=- CDDA (100%)
09 -=- 09 - Ловец.flac -=- CDDA (100%)
10 -=- 10 - I love u.flac -=- CDDA (100%)
11 -=- 11 - Спокойной ночи.flac -=- CDDA (100%)

Сводка 99,91% CDDA

160360292
[свернуть]

Скачать Евгений Маргулис - Маргулис



password: sergych
[свернуть]
My opinion of release: 10/10
__________________
TAIFUN.Wings of Soul


Последний раз редактировалось sergych, 10.05.2015 в 19:23. Причина: перезаливка умершего
Вверх
Пользователь сказал cпасибо:
aheron (08.05.2013)
Похожие темы
Тема Автор Раздел Ответов Последнее сообщение
Сборник Евгений Маргулис - Best... sergych Blues Rock 0 22.04.2013 21:18
Альбом Евгений Край - Платцкарт PUPOKIN Шансон 0 10.02.2009 10:47
Евгений Гришковец - Следы на мне PUPOKIN Аудиокниги 0 28.01.2009 09:31


Метки
2013 , blues rock , rock , евгений маргулис , маргулис

Опции темы

Ваши права в разделе
Вы не можете создавать новые темы
Вы не можете отвечать в темах
Вы не можете прикреплять вложения
Вы не можете редактировать свои сообщения

Быстрый переход



Текущее время: 07:18. Часовой пояс GMT +3.
Powered by vBulletin® Version 3.8.10
Copyright ©2000 - 2018, vBulletin Solutions, Inc. Перевод: zCarot
© 2008 - 2018 Taifun With Song
Яндекс.Метрика