TAIFUN With Song
Навигация
Вернуться   TAIFUN With Song > Music (обменник) > Rock > Blues Rock
Расширенный поиск
Blues Rock К концу сороковых годов прошлого столетия в блюзе окончательно обосновалась электрогитара. Трудно сказать, что подтолкнуло многих блюзменов перейти с привычной акустической гитары на электрическую, но блюз с тех пор очень сильно изменился.

А знаете ли Вы, что...
Почему песня «Nothing Else Matters» начинается перебором на открытых струнах?
«В начале песни «Nothing Else Matters» группы Metallica слышен перебор на открытых первой, второй, третьей и шестой струнах. Такое композиционное решение появилось благодаря тому, что её автор Джеймс Хэтфилд, когда начинал сочинять песню, одной рукой держал телефонную трубку и разговаривал со своей девушкой.»
 
Опции темы

  #1
Старый 22.04.2013, 21:18
sergych
Координатор
Досье
 
Аватар для sergych
Релиз Евгений Маргулис - Best...


2002 - Евгений Маргулис - Best...




Исполнитель/Artist: Евгений Маргулис
Альбом/Album: Best...
Год/Year: 2002
Жанр/Genre: rock, blues rock
Страна/Country: Russia
Рекорд-лейбл/Record label: Sintez Records
Номер в каталоге/Catalogue #: SRCD 00081
Формат/Format: Free Lossless Audio Codec (*.flac)
Качество/Quality: Lossless
Тип рипа/RIP Type: tracks+.cue
Продолжительность/Length: 00:47:51
Источник/Source: Собственный рип
Размер/Size: 333.5 MB

Сканы в комплекте

Треклист

01 - Шанхай блюз
02 - Внештатный командир Земли
03 - Я дам тебе знать
04 - Не плачь обо мне
05 - Мой друг
06 - Пусть она станет небом
07 - Домажо
08 - Старые песни
09 - Всегда одинок
10 - Проводница
11 - Ветер всё сильней
12 - Иногда я пою
13 - Я рядом с тобой
[свернуть]

EAC лог

Exact Audio Copy V1.0 beta 3 from 29. August 2011

EAC extraction logfile from 22. April 2013, 13:06

Евгений Маргулис / Best...

Used drive : HL-DT-STDVDRAM GH22NS50 Adapter: 2 ID: 1

Read mode : Secure
Utilize accurate stream : Yes
Defeat audio cache : No
Make use of C2 pointers : Yes

Combined read/write offset correction : 0
Overread into Lead-In and Lead-Out : No
Fill up missing offset samples with silence : Yes
Delete leading and trailing silent blocks : No
Null samples used in CRC calculations : Yes
Used interface : Native Win32 interface for Win NT & 2000
Gap handling : Appended to previous track

Used output format : User Defined Encoder
Selected bitrate : 896 kBit/s
Quality : High
Add ID3 tag : Yes
Command line compressor : C:\MMProgram\Exact Audio Copy\FLAC\FLAC.EXE
Additional command line options : -6 -V -T "ARTIST=%artist%" -T "TITLE=%title%" -T "ALBUM=%albumtitle%" -T "DATE=%year%" -T "TRACKNUMBER=%tracknr%" -T "GENRE=%genre%" -T "COMMENT=%comment%" -T "BAND=%albuminterpret%" -T "ALBUMARTIST=%albuminterpret%" -T "COMPOSER=%composer%" %haslyrics%--tag-from-file=LYRICS="%lyricsfile%"%haslyrics% -T "DISCNUMBER=%cdnumber%" -T "TOTALDISCS=%totalcds%" -T "TOTALTRACKS=%numtracks%" %hascover%--picture="%coverfile%"%hascover% %source% -o %dest%


TOC of the extracted CD

Track | Start | Length | Start sector | End sector
---------------------------------------------------------
1 | 0:00.00 | 3:40.26 | 0 | 16525
2 | 3:40.26 | 5:14.41 | 16526 | 40116
3 | 8:54.67 | 2:33.43 | 40117 | 51634
4 | 11:28.35 | 4:42.41 | 51635 | 72825
5 | 16:11.01 | 4:09.19 | 72826 | 91519
6 | 20:20.20 | 3:42.43 | 91520 | 108212
7 | 24:02.63 | 3:39.49 | 108213 | 124686
8 | 27:42.37 | 4:48.05 | 124687 | 146291
9 | 32:30.42 | 3:11.45 | 146292 | 160661
10 | 35:42.12 | 3:00.73 | 160662 | 174234
11 | 38:43.10 | 4:46.12 | 174235 | 195696
12 | 43:29.22 | 3:04.00 | 195697 | 209496
13 | 46:33.22 | 1:37.32 | 209497 | 216803


Track 1

Filename C:\mm\Шанхай\2002 - Best\01 - Шанхай блюз.wav

Pre-gap length 0:00:02.00

Peak level 98.8 %
Extraction speed 14.7 X
Track quality 100.0 %
Test CRC F8841927
Copy CRC F8841927
Copy OK

Track 2

Filename C:\mm\Шанхай\2002 - Best\02 - Внештатный командир Земли.wav

Pre-gap length 0:00:01.45

Peak level 98.8 %
Extraction speed 10.0 X
Track quality 99.9 %
Test CRC 90A74525
Copy CRC 90A74525
Copy OK

Track 3

Filename C:\mm\Шанхай\2002 - Best\03 - Я дам тебе знать.wav

Pre-gap length 0:00:01.45

Peak level 98.9 %
Extraction speed 7.5 X
Track quality 99.8 %
Test CRC E1460BEE
Copy CRC E1460BEE
Copy OK

Track 4

Filename C:\mm\Шанхай\2002 - Best\04 - Не плачь обо мне.wav

Pre-gap length 0:00:01.45

Peak level 98.8 %
Extraction speed 7.7 X
Track quality 100.0 %
Test CRC 62328DB4
Copy CRC 62328DB4
Copy OK

Track 5

Filename C:\mm\Шанхай\2002 - Best\05 - Мой друг.wav

Pre-gap length 0:00:01.45

Peak level 98.8 %
Extraction speed 8.2 X
Track quality 100.0 %
Test CRC 915131FB
Copy CRC 915131FB
Copy OK

Track 6

Filename C:\mm\Шанхай\2002 - Best\06 - Пусть она станет небом.wav

Pre-gap length 0:00:01.45

Peak level 98.8 %
Extraction speed 7.6 X
Track quality 100.0 %
Test CRC 7ADA6B57
Copy CRC 7ADA6B57
Copy OK

Track 7

Filename C:\mm\Шанхай\2002 - Best\07 - Домажо.wav

Pre-gap length 0:00:01.45

Peak level 98.8 %
Extraction speed 9.4 X
Track quality 100.0 %
Test CRC 5B7FCC82
Copy CRC 5B7FCC82
Copy OK

Track 8

Filename C:\mm\Шанхай\2002 - Best\08 - Старые песни.wav

Pre-gap length 0:00:01.45

Peak level 98.8 %
Extraction speed 14.1 X
Track quality 99.9 %
Test CRC F081D8DD
Copy CRC F081D8DD
Copy OK

Track 9

Filename C:\mm\Шанхай\2002 - Best\09 - Всегда одинок.wav

Pre-gap length 0:00:01.45

Peak level 98.8 %
Extraction speed 15.1 X
Track quality 100.0 %
Test CRC 7CB0B164
Copy CRC 7CB0B164
Copy OK

Track 10

Filename C:\mm\Шанхай\2002 - Best\10 - Проводница.wav

Pre-gap length 0:00:01.45

Peak level 98.9 %
Extraction speed 10.2 X
Track quality 100.0 %
Test CRC 19C0E800
Copy CRC 19C0E800
Copy OK

Track 11

Filename C:\mm\Шанхай\2002 - Best\11 - Ветер всё сильней.wav

Pre-gap length 0:00:01.45

Peak level 98.9 %
Extraction speed 9.4 X
Track quality 99.9 %
Test CRC C289128E
Copy CRC C289128E
Copy OK

Track 12

Filename C:\mm\Шанхай\2002 - Best\12 - Иногда я пою.wav

Pre-gap length 0:00:01.45

Peak level 98.8 %
Extraction speed 10.1 X
Track quality 100.0 %
Test CRC 9C91A539
Copy CRC 9C91A539
Copy OK

Track 13

Filename C:\mm\Шанхай\2002 - Best\13 - Я рядом с тобой.wav

Pre-gap length 0:00:01.45

Peak level 94.9 %
Extraction speed 10.6 X
Track quality 100.0 %
Test CRC A9E5D802
Copy CRC A9E5D802
Copy OK

No errors occurred

End of status report
[свернуть]

Файл CUE

REM GENRE Blues
REM DATE 2002
REM DISCID A60B4A0D
REM COMMENT "ExactAudioCopy v1.0b3"
PERFORMER "Евгений Маргулис"
TITLE "Best..."
FILE "01 - Шанхай блюз.wav" WAVE
TRACK 01 AUDIO
TITLE "Шанхай блюз"
PERFORMER "Евгений Маргулис"
INDEX 01 00:00:00
TRACK 02 AUDIO
TITLE "Внештатный командир Земли"
PERFORMER "Евгений Маргулис"
INDEX 00 03:38:56
FILE "02 - Внештатный командир Земли.wav" WAVE
INDEX 01 00:00:00
TRACK 03 AUDIO
TITLE "Я дам тебе знать"
PERFORMER "Евгений Маргулис"
INDEX 00 05:12:71
FILE "03 - Я дам тебе знать.wav" WAVE
INDEX 01 00:00:00
TRACK 04 AUDIO
TITLE "Не плачь обо мне"
PERFORMER "Евгений Маргулис"
INDEX 00 02:31:73
FILE "04 - Не плачь обо мне.wav" WAVE
INDEX 01 00:00:00
TRACK 05 AUDIO
TITLE "Мой друг"
PERFORMER "Евгений Маргулис"
INDEX 00 04:40:71
FILE "05 - Мой друг.wav" WAVE
INDEX 01 00:00:00
TRACK 06 AUDIO
TITLE "Пусть она станет небом"
PERFORMER "Евгений Маргулис"
INDEX 00 04:07:49
FILE "06 - Пусть она станет небом.wav" WAVE
INDEX 01 00:00:00
TRACK 07 AUDIO
TITLE "Домажо"
PERFORMER "Евгений Маргулис"
INDEX 00 03:40:73
FILE "07 - Домажо.wav" WAVE
INDEX 01 00:00:00
TRACK 08 AUDIO
TITLE "Старые песни"
PERFORMER "Евгений Маргулис"
INDEX 00 03:38:04
FILE "08 - Старые песни.wav" WAVE
INDEX 01 00:00:00
TRACK 09 AUDIO
TITLE "Всегда одинок"
PERFORMER "Евгений Маргулис"
INDEX 00 04:46:35
FILE "09 - Всегда одинок.wav" WAVE
INDEX 01 00:00:00
TRACK 10 AUDIO
TITLE "Проводница"
PERFORMER "Евгений Маргулис"
INDEX 00 03:10:00
FILE "10 - Проводница.wav" WAVE
INDEX 01 00:00:00
TRACK 11 AUDIO
TITLE "Ветер всё сильней"
PERFORMER "Евгений Маргулис"
INDEX 00 02:59:28
FILE "11 - Ветер всё сильней.wav" WAVE
INDEX 01 00:00:00
TRACK 12 AUDIO
TITLE "Иногда я пою"
PERFORMER "Евгений Маргулис"
INDEX 00 04:44:42
FILE "12 - Иногда я пою.wav" WAVE
INDEX 01 00:00:00
TRACK 13 AUDIO
TITLE "Я рядом с тобой"
PERFORMER "Евгений Маргулис"
INDEX 00 03:02:30
FILE "13 - Я рядом с тобой.wav" WAVE
INDEX 01 00:00:00
[свернуть]

Лог проверки качества

AUDIOCHECKER v2.0 beta (build 457) - by Dester -
~~~~~~~~~~~~~~~~~~~~~~~~~~~~~~~~~~
-=== НЕ РЕДАКТИРУЙТЕ ЭТОТ ФАЙЛ! ===-

Путь: ...\2002 - Best

01 -=- 01 - Шанхай блюз.flac -=- CDDA (100%)
02 -=- 02 - Внештатный командир Земли.flac -=- CDDA (100%)
03 -=- 03 - Я дам тебе знать.flac -=- CDDA (100%)
04 -=- 04 - Не плачь обо мне.flac -=- CDDA (100%)
05 -=- 05 - Мой друг.flac -=- CDDA (100%)
06 -=- 06 - Пусть она станет небом.flac -=- CDDA (100%)
07 -=- 07 - Домажо.flac -=- CDDA (100%)
08 -=- 08 - Старые песни.flac -=- CDDA (100%)
09 -=- 09 - Всегда одинок.flac -=- CDDA (100%)
10 -=- 10 - Проводница.flac -=- CDDA (100%)
11 -=- 11 - Ветер всё сильней.flac -=- CDDA (100%)
12 -=- 12 - Иногда я пою.flac -=- CDDA (100%)
13 -=- 13 - Я рядом с тобой.flac -=- CDDA (100%)

Сводка 100,00% CDDA

115251220
[свернуть]

Скачать Евгений Маргулис - Best...



password: sergych
[свернуть]
My opinion of release: 10/10
__________________
TAIFUN.Wings of Soul


Последний раз редактировалось sergych, 10.05.2015 в 19:26. Причина: перезаливка умершего
Вверх
Похожие темы
Тема Автор Раздел Ответов Последнее сообщение
Релиз Евгений Евдокимов - Расписной PUPOKIN Шансон 0 17.03.2011 10:11
Релиз Евдокимов Евгений - Часики PUPOKIN Шансон 0 11.02.2011 10:01
Альбом Евгений Осин - В России PUPOKIN Русская Поп-Музыка 0 12.03.2010 09:24


Метки
2002 , best... , blues rock , rock , евгений маргулис

Опции темы

Ваши права в разделе
Вы не можете создавать новые темы
Вы не можете отвечать в темах
Вы не можете прикреплять вложения
Вы не можете редактировать свои сообщения

Быстрый переход



Текущее время: 04:54. Часовой пояс GMT +3.
Powered by vBulletin® Version 3.8.10
Copyright ©2000 - 2018, vBulletin Solutions, Inc. Перевод: zCarot
© 2008 - 2018 Taifun With Song
Яндекс.Метрика