TAIFUN With Song
Навигация
Вернуться   TAIFUN With Song > Music (обменник) > Rock > Pop Rock
Расширенный поиск
Pop Rock Поп-рок — жанр музыки, объединяющий элементы поп-музыки и рок-музыки. Песни характеризуются простой структурой, запоминающимися мелодиями, повторением музыкальных фраз (от попа), использованием в качестве основных инструментов электрогитар и ударных и агрессивным настроением (от рока).

А знаете ли Вы, что...
Почему песня «А может быть ворона» из советского мультфильма была записана в ускоренном темпе?
«Песня «А может быть ворона» изначально должна была звучать в мультфильме «Пластилиновая ворона» в обычном темпе. Однако режиссёр Александр Татарский не проследил за временем записи, из-за чего песня не уложилась в отведённые 5 минут анимации. Решение было найдено простое — песню ускорили, в результате чего она приобрела своё знаменитое «мультяшное» звучание.»
 
Опции темы

  #1
Старый 19.05.2012, 07:27
sergych
Координатор
Досье
 
Аватар для sergych
Релиз Eric Stewart - Do Not Bend


2003 - Eric Stewart - Do Not Bend




Исполнитель/Artist: Eric Stewart
Альбом/Album: Do Not Bend
Год/Year: 2003
Жанр/Genre: Pop, Rock, Reggae, Rock'n'Roll
Рекорд-лейбл/Record label: Strawberry Soundtracks
Формат/Format: Free Lossless Audio Codec (*.flac)
Качество/Quality: Lossless
Тип рипа/RIP Type: image+.cue
Продолжительность/Length: 01:03:49
Источник/Source: Из интернета
Размер/Size: 615.2 MB

Сканы в комплекте

Треклист

01 - You Can't Take It With You
02 - A Friend in Need
03 - The Gods Are Smiling
04 - Fred and Dis-Audrey
05 - I Will Love You Tomorrow
06 - Sleeping With the Ghosts
07 - Rappin' with Yves
08 - Norman Conquest II
09 - No No Nettie
10 - Mr Decadent
11 - Do the Books
12 - Set in Blancmange
13 - A Human, Being
14 - You Are Not Me
[свернуть]

youtube.com

[свернуть]

Исполнители/Performers

Eric Stewart – vocals, guitar, bass, piano, synthesiser, drums and percussion, steel drums, brass
Sam Brown – backing vocals
Helen McRobbie – backing vocals
Louise Marshall – backing vocals
[свернуть]

EAC лог

Exact Audio Copy V0.99 prebeta 4 from 23. January 2008

Отчёт EAC об извлечении, выполненном 8. ноября 2009, 17:06

Eric Stewart / Do Not Bend

Дисковод: ASUS DRW-1814BLT Adapter: 2 ID: 0

Режим чтения : Достоверность
Использование точного потока : Да
Отключение кэша аудио : Да
Использование указателей C2 : Нет

Коррекция смещения при чтении : 6
Способность читать области Lead-in и Lead-out : Нет
Заполнение пропущенных сэмплов тишиной : Да
Удаление блоков с тишиной в начале и конце : Нет
При вычислениях CRC использовались нулевые сэмплы : Да
Интерфейс : Встроенный Win32-интерфейс для Win NT/2000

Выходной формат : Пользовательский кодировщик
Выбранный битрейт : 1024 kBit/s
Качество : Высокий
Добавление ID3-тэга : Нет
Утилита сжатия : C:\Program Files\Exact Audio Copy\FLAC\FLAC.EXE
Дополнительные параметры : -2 -V -T "ARTIST=%a" -T "TITLE=%t" -T "ALBUM=%g" -T "DATE=%y" -T "TRACKNUMBER=%n" -T "GENRE=%m" -T "COMMENT=%e" %s -o %d


TOC извлечённого CD

Трек | Старт | Длительность | Начальный сектор | Конечный сектор
---------------------------------------------------------------------
1 | 0:00.00 | 4:06.65 | 0 | 18514
2 | 4:06.65 | 5:02.70 | 18515 | 41234
3 | 9:09.60 | 4:33.51 | 41235 | 61760
4 | 13:43.36 | 4:14.56 | 61761 | 80866
5 | 17:58.17 | 5:07.23 | 80867 | 103914
6 | 23:05.40 | 5:13.58 | 103915 | 127447
7 | 28:19.23 | 3:24.63 | 127448 | 142810
8 | 31:44.11 | 4:20.70 | 142811 | 162380
9 | 36:05.06 | 3:15.56 | 162381 | 177061
10 | 39:20.62 | 3:54.55 | 177062 | 194666
11 | 43:15.42 | 5:36.71 | 194667 | 219937
12 | 48:52.38 | 5:54.09 | 219938 | 246496
13 | 54:46.47 | 4:21.40 | 246497 | 266111
14 | 59:08.12 | 4:41.55 | 266112 | 287241


Характеристики диапазона извлечения и сообщения об ошибках

Выбранный диапазон

Имя файла F:\Torrent\OUT\Eric Stewart - Do Not Bend.wav

Пиковый уровень 97.4 %
Качество диапазона 100.0 %
CRC теста CC08EF55
CRC копии CC08EF55
Копирование... OK

Ошибок не произошло

Конец отчёта
[свернуть]

Файл CUE

REM GENRE Rock
REM DATE 2003
REM DISCID C70EF50E
REM COMMENT "ExactAudioCopy v0.99pb4"
PERFORMER "Eric Stewart"
TITLE "Do Not Bend"
FILE "Eric Stewart - Do Not Bend.flac" WAVE
TRACK 01 AUDIO
TITLE "You Can't Take It With You"
PERFORMER "Eric Stewart"
INDEX 01 00:00:00
TRACK 02 AUDIO
TITLE "A Friend In Need"
PERFORMER "Eric Stewart"
INDEX 01 04:06:65
TRACK 03 AUDIO
TITLE "The Gods Are Smiling"
PERFORMER "Eric Stewart"
INDEX 01 09:09:60
TRACK 04 AUDIO
TITLE "Fred And Dis-Audrey"
PERFORMER "Eric Stewart"

INDEX 01 13:43:36
TRACK 05 AUDIO
TITLE "I Will Love You Tomorrow"
PERFORMER "Eric Stewart"

INDEX 01 17:58:17
TRACK 06 AUDIO
TITLE "Sleeping With The Ghosts"
PERFORMER "Eric Stewart"

INDEX 01 23:05:40
TRACK 07 AUDIO
TITLE "Rappin' With Yves"
PERFORMER "Eric Stewart"

INDEX 01 28:19:23
TRACK 08 AUDIO
TITLE "Norman Conquest II"
PERFORMER "Eric Stewart"

INDEX 01 31:44:11
TRACK 09 AUDIO
TITLE "No No Nettie"
PERFORMER "Eric Stewart"

INDEX 01 36:05:06
TRACK 10 AUDIO
TITLE "Mr Decadent"
PERFORMER "Eric Stewart"

INDEX 01 39:20:62
TRACK 11 AUDIO
TITLE "Do The Books"
PERFORMER "Eric Stewart"

INDEX 01 43:15:42
TRACK 12 AUDIO
TITLE "Set In Blancmange"
PERFORMER "Eric Stewart"

INDEX 01 48:52:38
TRACK 13 AUDIO
TITLE "A Human, Being"
PERFORMER "Eric Stewart"

INDEX 01 54:46:47
TRACK 14 AUDIO
TITLE "You Are Not Me"
PERFORMER "Eric Stewart"

INDEX 01 59:08:12
[свернуть]

Лог проверки качества

AUDIOCHECKER v2.0 beta (build 457) - by Dester -
~~~~~~~~~~~~~~~~~~~~~~~~~~~~~~~~~~
-=== НЕ РЕДАКТИРУЙТЕ ЭТОТ ФАЙЛ! ===-

Путь: ...\2003 - Do Not Bend

1 -=- Eric Stewart - Do Not Bend.flac -=- CDDA (100%)

8981684
[свернуть]

Скачать Eric Stewart - Do Not Bend



password: sergych
[свернуть]
My opinion of release: 8/10
__________________
TAIFUN.Wings of Soul

Вверх
Похожие темы
Тема Автор Раздел Ответов Последнее сообщение
Релиз Мамульки Bend - Флэшмоб PUPOKIN Punk Rock 0 21.09.2011 08:41
Сборник Rod Stewart - You Wear It Well. The Collection PUPOKIN Pop Rock 0 12.07.2011 09:29
Релиз Grant Stewart - Around The Corner PUPOKIN Jazz и Blues 0 08.01.2011 08:55
Альбом Eric Sardinas - Eric Sardinas And Big Motor PUPOKIN Blues Rock 0 06.11.2008 10:05


Метки
10cc , 2003 , do not bend , eric stewart , pop , reggae , rock , rock'n'roll

Опции темы

Ваши права в разделе
Вы не можете создавать новые темы
Вы не можете отвечать в темах
Вы не можете прикреплять вложения
Вы не можете редактировать свои сообщения

Быстрый переход



Текущее время: 09:31. Часовой пояс GMT +3.
Powered by vBulletin® Version 3.8.10
Copyright ©2000 - 2018, vBulletin Solutions, Inc. Перевод: zCarot
© 2008 - 2018 Taifun With Song
Яндекс.Метрика