TAIFUN With Song
Навигация
Вернуться   TAIFUN With Song > Music (обменник) > Другие направления музыки > Jazz и Blues
Расширенный поиск
Jazz и Blues Гибкая ритмика, импровизационное начало, гармонии и мелодии - все это Jazz. Blues - жизнеутверждающая музыка, рожденная из душевной боли

А знаете ли Вы, что...
Какое музыкальное произведение планируется закончить исполнять к 2640 году?
«Среди произведений Джона Кейджа есть пьеса «Organ²/ASLSP (As SLow aS Possible)». Её типичное исполнение на фортепиано занимает от 20 до 70 минут, однако пояснение в скобках даёт указание играть пьесу настолько медленно, насколько это возможно. В связи с этим в 2001 году в церкви немецкого города Хальберштадт началось уникальное исполнение этой пьесы на органе, которое планируется завершить в 2640 году (через 639 лет после начала), а смена аккорда проходит примерно раз в год.»
 
Опции темы

  #1
Старый 28.02.2011, 20:37
sergych
Координатор
Досье
 
Аватар для sergych
Релиз Oscar Peterson - Supreme Jazz Collection

2006 - Supreme Jazz Collection



Исполнитель/Artist: Oscar Peterson
Альбом/Album: Supreme Jazz Collection
Год/Year: 2006
Издатель/Label: Supreme Jazz
Жанр/Genre: Jazz / Instrumental Jazz
Формат/Format: mp3 CBR
Качество/Quality: 320 kbps JStereo
Размер/Size: 162.9 mb
Продолжительность/Length: 01:00:27

сканы в комплекте

Треклист

01 - 'S Wonderful
02 - Oh! Lady Be Good
03 - I Got Rhythm
04 - Ad Lib Blues
05 - Cheek To Cheek
06 - Bounce Blues
07 - Blue Moon
08 - I Only Have Eyes For You
09 - I Gotta Right To Sing The Blues
10 - You Must Have Been A Beautiful Baby
11 - Come Rain Or Come Shine
12 - I Can't Give You Anything But Love
13 - Frenesi
14 - I Let a Song Go Out Of You
[свернуть]

Скачать Oscar Peterson - Supreme Jazz Collection (2006)




password: sergych
[свернуть]


My opinion of release: 10/10

Release info RInfo

Треки 1-4
запись в Лос-Анжелесе, 1 ноября и 4 декабря 1952 года, в составе
Трек 5
запись в Лос-Анжелесе, декабрь 1952 года, в составе
Трек 6
запись в Нью-Йорке, 21 мая 1953 года, в составе
Трек 7
запись в Голливуде, декбрь 1953 года, в составе
Треки 8-11
запись в Голливуде, 15 ноября 1954 года, в составе
Трек 12
запись в Голливуде, 16 ноября 1954 года, в составе
Трек 13
запись в Лос-Анжелесе, 12 ноября 1954 года, в составе
Трек 14
запись в Голливуде, в декабре 1953 года и Нью-Йорке, в мае 1954 года, в составе
__________________
TAIFUN.Wings of Soul


Последний раз редактировалось sergych, 05.07.2018 в 14:37. Причина: перезаливка
Вверх
Пользователь сказал cпасибо:
TAIFUN (28.02.2011)
  #2
Старый 05.07.2018, 15:14
sergych
Координатор
Досье
 
Аватар для sergych
Релиз Re: Oscar Peterson - Supreme Jazz Collection


2006 - Oscar Peterson - Supreme Jazz Collection




Исполнитель/Artist: Oscar Peterson
Альбом/Album: Supreme Jazz Collection
Год/Year: 2006
Жанр/Genre: Jazz, Swing
Страна/Country: Германия
Рекорд-лейбл/Record label: Membran Music
Номер в каталоге/Catalogue #: 223544-207
Формат/Format: Free Lossless Audio Codec (*.flac)
Качество/Quality: Lossless
Тип рипа/RIP Type: image+.cue
Продолжительность/Length: 01:00:28
Источник/Source: Собственный рип
Размер/Size: 291.7 MB

Сканы в комплекте

Треклист

01. 'S Wonderful [0:02:38.27] (Лос-Анжелес, 1 ноября и 4 декабря 1952 года)
02. Oh! Lady Be Good [0:03:51.01](Лос-Анжелес, 1 ноября и 4 декабря 1952 года)
03. I Got Rhythm [0:03:17.61] (Лос-Анжелес, 1 ноября и 4 декабря 1952 года)
04. Ad Lib Blues [0:05:52.53] (Лос-Анжелес, 1 ноября и 4 декабря 1952 года)
05. Cheek To Cheek [0:03:02.62] (Лос-Анжелес, декабрь 1952 года)
06. Bounce Blues [0:04:34.55] (Нью-Йорк, 21 мая 1953 год)
07. Blue Moon [0:02:55.29] (Голливуд, декабрь 1953 года)
08. I Only Have Eyes For You [0:04:09.20] (Голливуд, 15 ноября 1954 года)
09. I Gotta Right To Sing The Blues [0:05:08.16] (Голливуд, 15 ноября 1954 года)
10. You Must Have Been A Beautiful Baby [0:04:07.38] (Голливуд, 15 ноября 1954 года)
11. Come Rain Or Come Shine [0:04:28.28] (Голливуд, 15 ноября 1954 года)
12. I Can't Give You Anything But Love [0:05:25.24] (Голливуд, 16 ноября 1954 года)
13. Frenesi [0:04:39.71] (Лос-Анжелес, 12 ноября 1954 года)
14. I Let a Song Go Out Of You [0:06:16.16] (Голливуд, в декабре 1953 года и Нью-Йорк, в мае 1954 года)
[свернуть]

youtube.com

[свернуть]

Исполнители/Performers

Bass – Lou Hackney (tracks: 14), Ray Brown (2)
Drums – Bobby White (tracks: 13), Louis Bellson (tracks: 14)
Guitar – Barney Kessel (tracks: 1 to 6), Herb Ellis (tracks: 7 to 14)
Piano – J.C. Heard (tracks: 6), Wade Legge (tracks: 14), Oscar Peterson
Tenor Saxophone – Ben Webster (tracks: 6), Benny Carter (tracks: 13), Dizzy Gillespie (tracks: 14), Hank Mobley (tracks: 14), Stan Getz (tracks: 14)
[свернуть]

EAC лог

Exact Audio Copy V1.3 from 2. September 2016

EAC extraction logfile from 5. July 2018, 3:22

Oscar Peterson / Supreme Jazz Collection

Used drive : ATAPI iHAS124 D Adapter: 0 ID: 2

Read mode : Secure
Utilize accurate stream : Yes
Defeat audio cache : Yes
Make use of C2 pointers : No

Read offset correction : 6
Overread into Lead-In and Lead-Out : No
Fill up missing offset samples with silence : Yes
Delete leading and trailing silent blocks : No
Null samples used in CRC calculations : Yes
Used interface : Installed external ASPI interface

Used output format : User Defined Encoder
Selected bitrate : 1024 kBit/s
Quality : High
Add ID3 tag : No
Command line compressor : C:\Program Files (x86)\Exact Audio Copy\Flac\flac.exe
Additional command line options : -6 -V -T "ARTIST=%artist%" -T "TITLE=%title%" -T "ALBUM=%albumtitle%" -T "DATE=%year%" -T "TRACKNUMBER=%tracknr%" -T "GENRE=%genre%" -T "COMMENT=%comment%" -T "BAND=%albuminterpret%" -T "ALBUMARTIST=%albuminterpret%" -T "COMPOSER=%composer%" %haslyrics%--tag-from-file=LYRICS="%lyricsfile%"%haslyrics% -T "DISCNUMBER=%cdnumber%" -T "TOTALDISCS=%totalcds%" -T "TOTALTRACKS=%numtracks%" %hascover%--picture="%coverfile%"%hascover% %source% -o %dest%


TOC of the extracted CD

Track | Start | Length | Start sector | End sector
---------------------------------------------------------
1 | 0:00.00 | 2:38.27 | 0 | 11876
2 | 2:38.27 | 3:51.01 | 11877 | 29202
3 | 6:29.28 | 3:17.61 | 29203 | 44038
4 | 9:47.14 | 5:52.53 | 44039 | 70491
5 | 15:39.67 | 3:02.62 | 70492 | 84203
6 | 18:42.54 | 4:34.55 | 84204 | 104808
7 | 23:17.34 | 2:55.29 | 104809 | 117962
8 | 26:12.63 | 4:09.20 | 117963 | 136657
9 | 30:22.08 | 5:08.16 | 136658 | 159773
10 | 35:30.24 | 4:07.38 | 159774 | 178336
11 | 39:37.62 | 4:28.28 | 178337 | 198464
12 | 44:06.15 | 5:25.24 | 198465 | 222863
13 | 49:31.39 | 4:39.71 | 222864 | 243859
14 | 54:11.35 | 6:16.16 | 243860 | 272075


Range status and errors

Selected range

Filename C:\mm\Oscar Peterson\2006 - Supreme Jazz Collection [223544-207]\Oscar Peterson - Supreme Jazz Collection.wav

Peak level 100.0 %
Extraction speed 1.9 X
Range quality 100.0 %
Test CRC 8AE684A6
Copy CRC 8AE684A6
Copy OK

No errors occurred

End of status report

---- CUETools DB Plugin V2.1.6

[CTDB TOCID: JRZ3ZFRbSUMekUliWZi1qHl00oM-] found
Submit result: JRZ3ZFRbSUMekUliWZi1qHl00oM- has been confirmed
Track | CTDB Status
1 | (7/7) Accurately ripped
2 | (7/7) Accurately ripped
3 | (7/7) Accurately ripped
4 | (7/7) Accurately ripped
5 | (7/7) Accurately ripped
6 | (7/7) Accurately ripped
7 | (7/7) Accurately ripped
8 | (7/7) Accurately ripped
9 | (7/7) Accurately ripped
10 | (7/7) Accurately ripped
11 | (7/7) Accurately ripped
12 | (7/7) Accurately ripped
13 | (7/7) Accurately ripped
14 | (7/7) Accurately ripped
[свернуть]

Файл CUE

REM GENRE jazz
REM DATE 2006
REM DISCID CB0E2B0E
REM COMMENT "ExactAudioCopy v1.3"
PERFORMER "Oscar Peterson"
TITLE "Supreme Jazz Collection"
REM COMPOSER ""
FILE "Oscar Peterson - Supreme Jazz Collection.flac" WAVE
TRACK 01 AUDIO
TITLE "'S Wonderful"
PERFORMER "Oscar Peterson"
REM COMPOSER ""
INDEX 01 00:00:00
TRACK 02 AUDIO
TITLE "Oh! Lady Be Good"
PERFORMER "Oscar Peterson"
REM COMPOSER ""
INDEX 00 02:36:27
INDEX 01 02:38:27
TRACK 03 AUDIO
TITLE "I Got Rhythm"
PERFORMER "Oscar Peterson"
REM COMPOSER ""
INDEX 00 06:27:28
INDEX 01 06:29:28
TRACK 04 AUDIO
TITLE "Ad Lib Blues"
PERFORMER "Oscar Peterson"
REM COMPOSER ""
INDEX 00 09:45:14
INDEX 01 09:47:14
TRACK 05 AUDIO
TITLE "Cheek To Cheek"
PERFORMER "Oscar Peterson"
REM COMPOSER ""
INDEX 00 15:37:67
INDEX 01 15:39:67
TRACK 06 AUDIO
TITLE "Bounce Blues"
PERFORMER "Oscar Peterson"
REM COMPOSER ""
INDEX 00 18:40:54
INDEX 01 18:42:54
TRACK 07 AUDIO
TITLE "Blue Moon"
PERFORMER "Oscar Peterson"
REM COMPOSER ""
INDEX 00 23:15:34
INDEX 01 23:17:34
TRACK 08 AUDIO
TITLE "I Only Have Eyes For You"
PERFORMER "Oscar Peterson"
REM COMPOSER ""
INDEX 00 26:10:63
INDEX 01 26:12:63
TRACK 09 AUDIO
TITLE "I Gotta Right To Sing The Blues"
PERFORMER "Oscar Peterson"
REM COMPOSER ""
INDEX 00 30:20:08
INDEX 01 30:22:08
TRACK 10 AUDIO
TITLE "You Must Have Been A Beautiful Baby"
PERFORMER "Oscar Peterson"
REM COMPOSER ""
INDEX 00 35:28:24
INDEX 01 35:30:24
TRACK 11 AUDIO
TITLE "Come Rain Or Come Shine"
PERFORMER "Oscar Peterson"
REM COMPOSER ""
INDEX 00 39:35:62
INDEX 01 39:37:62
TRACK 12 AUDIO
TITLE "I Can't Give You Anything But Love"
PERFORMER "Oscar Peterson"
REM COMPOSER ""
INDEX 00 44:04:15
INDEX 01 44:06:15
TRACK 13 AUDIO
TITLE "Frenesi"
PERFORMER "Oscar Peterson"
REM COMPOSER ""
INDEX 00 49:29:39
INDEX 01 49:31:39
TRACK 14 AUDIO
TITLE "I Let a Song Go Out Of You"
PERFORMER "Oscar Peterson"
REM COMPOSER ""
INDEX 00 54:09:35
INDEX 01 54:11:35
[свернуть]

Лог проверки качества

AUDIOCHECKER v2.0 beta (build 457) - by Dester -
~~~~~~~~~~~~~~~~~~~~~~~~~~~~~~~~~~
-=== НЕ РЕДАКТИРУЙТЕ ЭТОТ ФАЙЛ! ===-

Путь: ...\2006 - Supreme Jazz Collection [223544-207]

1 -=- Oscar Peterson - Supreme Jazz Collection.flac -=- CDDA (100%)

258505604
[свернуть]

Спектр частот

[свернуть]

Скачать Oscar Peterson - Supreme Jazz Collection



password: sergych
[свернуть]

Контрольная сумма (хеш-сумма) архива

MD5: ea9c4957a1115bcfd66b4713ddaad5c5
[свернуть]
My opinion of release: 10/10

Release info RInfo

Как полезно пробегаться иногда по своим старым постам, - вот и в этот раз обнаружил, что постил только mp3, а рип lossless почему-то не сделал.
__________________
TAIFUN.Wings of Soul

Вверх
2 пользователя(ей) сказали cпасибо:
swint68 (05.07.2018), TAIFUN (06.07.2018)
Похожие темы
Тема Автор Раздел Ответов Последнее сообщение
Сборник Oscar Peterson - ''Planet Jazz'' Series sergych Jazz и Blues 0 01.07.2018 05:41
Сборник Lionel Hampton & Oscar Peterson {Jazz Masters 26} sergych Jazz и Blues 0 07.02.2016 22:32
Live Oscar Peterson - Paris Jazz Concert sergych Jazz и Blues 0 29.09.2015 00:54
Сборник Oscar Peterson - Verve Jazz Masters 16. Oscar Peterson sergych Jazz и Blues 0 08.05.2015 21:00
Сборник Oscar Peterson - Jazz Manifesto sergych Jazz и Blues 0 28.03.2015 19:39


Метки
2006 , instrumental , jazz , oscar peterson , supreme jazz collection , swing

Опции темы

Ваши права в разделе
Вы не можете создавать новые темы
Вы не можете отвечать в темах
Вы не можете прикреплять вложения
Вы не можете редактировать свои сообщения

Быстрый переход



Текущее время: 16:17. Часовой пояс GMT +3.
Powered by vBulletin® Version 3.8.10
Copyright ©2000 - 2018, vBulletin Solutions, Inc. Перевод: zCarot
© 2008 - 2018 Taifun With Song
Яндекс.Метрика