TAIFUN With Song
Навигация
Jazz и Blues Гибкая ритмика, импровизационное начало, гармонии и мелодии - все это Jazz. Blues - жизнеутверждающая музыка, рожденная из душевной боли

А знаете ли Вы, что...
Какой русский музыкальный инструмент мы называем цыганским?
«Семиструнную гитару во всём мире называют русской гитарой, а у нас также распространено название цыганская гитара.»
 
Опции темы

  #1
Старый 09.02.2012, 18:36
sergych
Координатор
Досье
 
Аватар для sergych
Релиз Oscar Peterson - The Gershwin SongBooks


1996 - Oscar Peterson - Plays The George Gershwin Songbook




Исполнитель/Artist: Oscar Peterson
Альбом/Album: Plays The George Gershwin Songbook
Год/Year: 1996
Жанр/Genre: Jazz
Страна/Country: Германия
Рекорд-лейбл/Record label: Verve / PolyGram Records
Номер в каталоге/Catalogue #: 529 698-2
Формат/Format: Free Lossless Audio Codec (*.flac)
Качество/Quality: Lossless
Тип рипа/RIP Type: image+.cue
Продолжительность/Length: 01:11:51
Источник/Source: Собственный рип
Размер/Size: 341.2 MB

Сканы в комплекте

Треклист

Oscar Peterson Plays The George Gershwin Song Book - 1959
Oscar Peterson Plays George Gershwin - 1952
[свернуть]

youtube.com

[свернуть]

Исполнители/Performers

1959
Oscar Peterson - piano
Ray Brown - bass
Ed Thigpen - drums

1952
Oscar Peterson - piano
Barney Kessel - guitars
Ray Brown - bass
[свернуть]

EAC лог

Exact Audio Copy V1.3 from 2. September 2016

EAC extraction logfile from 15. July 2018, 11:00

Oscar Peterson / Plays The George Gershwin Songbook 1952-59

Used drive : ATAPI iHAS124 D Adapter: 0 ID: 2

Read mode : Secure
Utilize accurate stream : Yes
Defeat audio cache : Yes
Make use of C2 pointers : No

Read offset correction : 6
Overread into Lead-In and Lead-Out : No
Fill up missing offset samples with silence : Yes
Delete leading and trailing silent blocks : No
Null samples used in CRC calculations : Yes
Used interface : Installed external ASPI interface

Used output format : User Defined Encoder
Selected bitrate : 1024 kBit/s
Quality : High
Add ID3 tag : No
Command line compressor : C:\Program Files (x86)\Exact Audio Copy\Flac\flac.exe
Additional command line options : -6 -V -T "ARTIST=%artist%" -T "TITLE=%title%" -T "ALBUM=%albumtitle%" -T "DATE=%year%" -T "TRACKNUMBER=%tracknr%" -T "GENRE=%genre%" -T "COMMENT=%comment%" -T "BAND=%albuminterpret%" -T "ALBUMARTIST=%albuminterpret%" -T "COMPOSER=%composer%" %haslyrics%--tag-from-file=LYRICS="%lyricsfile%"%haslyrics% -T "DISCNUMBER=%cdnumber%" -T "TOTALDISCS=%totalcds%" -T "TOTALTRACKS=%numtracks%" %hascover%--picture="%coverfile%"%hascover% %source% -o %dest%


TOC of the extracted CD

Track | Start | Length | Start sector | End sector
---------------------------------------------------------
1 | 0:00.00 | 2:48.68 | 0 | 12667
2 | 2:48.68 | 3:09.10 | 12668 | 26852
3 | 5:58.03 | 2:49.15 | 26853 | 39542
4 | 8:47.18 | 2:50.60 | 39543 | 52352
5 | 11:38.03 | 2:55.27 | 52353 | 65504
6 | 14:33.30 | 3:02.33 | 65505 | 79187
7 | 17:35.63 | 2:59.27 | 79188 | 92639
8 | 20:35.15 | 2:31.53 | 92640 | 104017
9 | 23:06.68 | 2:20.17 | 104018 | 114534
10 | 25:27.10 | 2:58.10 | 114535 | 127894
11 | 28:25.20 | 2:07.68 | 127895 | 137487
12 | 30:33.13 | 2:18.62 | 137488 | 147899
13 | 32:52.00 | 3:34.73 | 147900 | 164022
14 | 36:26.73 | 3:00.70 | 164023 | 177592
15 | 39:27.68 | 3:17.40 | 177593 | 192407
16 | 42:45.33 | 3:25.07 | 192408 | 207789
17 | 46:10.40 | 3:17.73 | 207790 | 222637
18 | 49:28.38 | 2:57.12 | 222638 | 235924
19 | 52:25.50 | 2:45.58 | 235925 | 248357
20 | 55:11.33 | 2:39.22 | 248358 | 260304
21 | 57:50.55 | 3:54.03 | 260305 | 277857
22 | 61:44.58 | 3:19.50 | 277858 | 292832
23 | 65:04.33 | 3:40.55 | 292833 | 309387
24 | 68:45.13 | 3:06.00 | 309388 | 323337


Range status and errors

Selected range

Filename C:\mm\Oscar Peterson\1996 - The Gershwin Songbooks (1952-1959) [529 698-2]\Oscar Peterson - Plays The George Gershwin Songbook 1952-59.wav

Peak level 99.9 %
Extraction speed 2.0 X
Range quality 100.0 %
Test CRC 51C946F4
Copy CRC 51C946F4
Copy OK

No errors occurred

End of status report

---- CUETools DB Plugin V2.1.6

[CTDB TOCID: 2N1u0ZfyACFIE6tJ2BfE3a3UDi8-] found
Submit result: 2N1u0ZfyACFIE6tJ2BfE3a3UDi8- has been confirmed
Track | CTDB Status
1 | (59/60) Accurately ripped
2 | (59/60) Accurately ripped
3 | (59/60) Accurately ripped
4 | (59/60) Accurately ripped
5 | (59/60) Accurately ripped
6 | (59/60) Accurately ripped
7 | (59/60) Accurately ripped
8 | (59/60) Accurately ripped
9 | (59/60) Accurately ripped
10 | (59/60) Accurately ripped
11 | (58/60) Accurately ripped
12 | (58/60) Accurately ripped
13 | (59/60) Accurately ripped
14 | (59/60) Accurately ripped
15 | (58/60) Accurately ripped
16 | (59/60) Accurately ripped
17 | (59/60) Accurately ripped
18 | (59/60) Accurately ripped
19 | (59/60) Accurately ripped
20 | (59/60) Accurately ripped
21 | (58/60) Accurately ripped
22 | (59/60) Accurately ripped
23 | (59/60) Accurately ripped
24 | (58/60) Accurately ripped
[свернуть]

Файл CUE

REM GENRE Jazz
REM DATE 1996
REM DISCID 6B10D718
REM COMMENT "ExactAudioCopy v1.3"
PERFORMER "Oscar Peterson"
TITLE "Plays The George Gershwin Songbook 1952-59"
REM COMPOSER ""
FILE "Oscar Peterson - Plays The George Gershwin Songbook 1952-59.flac" WAVE
TRACK 01 AUDIO
TITLE "It Ain't Necessarily So"
PERFORMER "Oscar Peterson"
REM COMPOSER ""
INDEX 01 00:00:00
TRACK 02 AUDIO
TITLE "The Man I Love"
PERFORMER "Oscar Peterson"
REM COMPOSER ""
INDEX 00 02:45:10
INDEX 01 02:48:68
TRACK 03 AUDIO
TITLE "Love Walked In"
PERFORMER "Oscar Peterson"
REM COMPOSER ""
INDEX 00 05:54:18
INDEX 01 05:58:03
TRACK 04 AUDIO
TITLE "I Was Doing All Right"
PERFORMER "Oscar Peterson"
REM COMPOSER ""
INDEX 00 08:43:38
INDEX 01 08:47:18
TRACK 05 AUDIO
TITLE "A Foggy Day"
PERFORMER "Oscar Peterson"
REM COMPOSER ""
INDEX 00 11:34:23
INDEX 01 11:38:03
TRACK 06 AUDIO
TITLE "Oh, Lady, Be Good!"
PERFORMER "Oscar Peterson"
REM COMPOSER ""
INDEX 00 14:29:50
INDEX 01 14:33:30
TRACK 07 AUDIO
TITLE "Love Is Here To Stay"
PERFORMER "Oscar Peterson"
REM COMPOSER ""
INDEX 00 17:32:08
INDEX 01 17:35:63
TRACK 08 AUDIO
TITLE "They All Laughed"
PERFORMER "Oscar Peterson"
REM COMPOSER ""
INDEX 00 20:31:35
INDEX 01 20:35:15
TRACK 09 AUDIO
TITLE "Let's Call The Whole Thing Off"
PERFORMER "Oscar Peterson"
REM COMPOSER ""
INDEX 00 23:03:13
INDEX 01 23:06:68
TRACK 10 AUDIO
TITLE "Summertime"
PERFORMER "Oscar Peterson"
REM COMPOSER ""
INDEX 00 25:23:30
INDEX 01 25:27:10
TRACK 11 AUDIO
TITLE "Nice Work If You Can Get It"
PERFORMER "Oscar Peterson"
REM COMPOSER ""
INDEX 00 28:21:40
INDEX 01 28:25:20
TRACK 12 AUDIO
TITLE "Shall We Dance?"
PERFORMER "Oscar Peterson"
REM COMPOSER ""
INDEX 00 30:29:33
INDEX 01 30:33:13
TRACK 13 AUDIO
TITLE "The Man I Love"
PERFORMER "Oscar Peterson"
REM COMPOSER ""
INDEX 00 32:48:33
INDEX 01 32:52:00
TRACK 14 AUDIO
TITLE "Fascinating Rhythm"
PERFORMER "Oscar Peterson"
REM COMPOSER ""
INDEX 00 36:22:18
INDEX 01 36:26:73
TRACK 15 AUDIO
TITLE "It Ain't Necessarily So"
PERFORMER "Oscar Peterson"
REM COMPOSER ""
INDEX 00 39:23:13
INDEX 01 39:27:68
TRACK 16 AUDIO
TITLE "Somebody Loves Me"
PERFORMER "Oscar Peterson"
REM COMPOSER ""
INDEX 00 42:40:53
INDEX 01 42:45:33
TRACK 17 AUDIO
TITLE "Strike Up The Band"
PERFORMER "Oscar Peterson"
REM COMPOSER ""
INDEX 00 46:07:23
INDEX 01 46:10:40
TRACK 18 AUDIO
TITLE "I've Got A Crush On You"
PERFORMER "Oscar Peterson"
REM COMPOSER ""
INDEX 01 49:28:38
TRACK 19 AUDIO
TITLE "I Was Doing All Right"
PERFORMER "Oscar Peterson"
REM COMPOSER ""
INDEX 00 52:20:70
INDEX 01 52:25:50
TRACK 20 AUDIO
TITLE "'S Wonderful"
PERFORMER "Oscar Peterson"
REM COMPOSER ""
INDEX 00 55:06:53
INDEX 01 55:11:33
TRACK 21 AUDIO
TITLE "Oh, Lady, Be Good"
PERFORMER "Oscar Peterson"
REM COMPOSER ""
INDEX 00 57:48:00
INDEX 01 57:50:55
TRACK 22 AUDIO
TITLE "I Got Rhythm"
PERFORMER "Oscar Peterson"
REM COMPOSER ""
INDEX 00 61:40:03
INDEX 01 61:44:58
TRACK 23 AUDIO
TITLE "A Foggy Day"
PERFORMER "Oscar Peterson"
REM COMPOSER ""
INDEX 00 65:00:53
INDEX 01 65:04:33
TRACK 24 AUDIO
TITLE "Love Walked In"
PERFORMER "Oscar Peterson"
REM COMPOSER ""
INDEX 00 68:42:33
INDEX 01 68:45:13
[свернуть]

Лог проверки качества

AUDIOCHECKER v2.0 beta (build 457) - by Dester -
~~~~~~~~~~~~~~~~~~~~~~~~~~~~~~~~~~
-=== НЕ РЕДАКТИРУЙТЕ ЭТОТ ФАЙЛ! ===-

Путь: ...\1996 - The Gershwin Songbooks (1952-1959) [529 698-2]

1 -=- Oscar Peterson - Plays The George Gershwin Songbook 1952-59.flac -=- CDDA (100%)

158089092
[свернуть]

Спектр частот

[свернуть]

Скачать Oscar Peterson - Plays The George Gershwin Songbook



password: sergych
[свернуть]

Контрольная сумма (хеш-сумма) архива

MD5: bf1e03e116dcb50a2b60086da02f5468
[свернуть]
My opinion of release: 10/10

Release info RInfo

Два винила, посвящённых творчеству Джорджа Гершвина, в великолепном исполнении замечательного Оскара Петерсона на одном СД :)
__________________
TAIFUN.Wings of Soul


Последний раз редактировалось sergych, 16.07.2018 в 18:52. Причина: заменил потрековый рип образом
Вверх
Пользователь сказал cпасибо:
swint68 (17.07.2018)
  #2
Старый 16.07.2018, 18:53
sergych
Координатор
Досье
 
Аватар для sergych
По умолчанию Re: Oscar Peterson - The Gershwin SongBooks

замена потрекового рипа образом
__________________
TAIFUN.Wings of Soul

Вверх
Пользователь сказал cпасибо:
swint68 (17.07.2018)
Похожие темы
Тема Автор Раздел Ответов Последнее сообщение
Альбом Ben Webster & Oscar Peterson - Ben Webster Meets Oscar Peterson sergych Jazz и Blues 1 01.06.2018 18:07
Альбом Oscar Peterson Trio - The Complete Cole Porter Songbooks fly123 Jazz и Blues 2 03.12.2011 13:26
Альбом Oscar Peterson - Oscar Peterson plays Porgy & Bess sergych Jazz и Blues 0 27.12.2008 07:28
Сборник Oscar Peterson - An Oscar Peterson Christmas sergych Jazz и Blues 0 27.12.2008 06:27
Альбом Count Basie & Oscar Peterson - The Timekeepers (Count Basie Meets Oscar Peterson) sergych Jazz и Blues 0 26.12.2008 05:10


Метки
1952 , 1996 , gershwin , jazz , oscar , oscar peterson , peterson , plays the george gershwin songbook , the gershwin songbooks

Опции темы

Ваши права в разделе
Вы не можете создавать новые темы
Вы не можете отвечать в темах
Вы не можете прикреплять вложения
Вы не можете редактировать свои сообщения

Быстрый переход



Текущее время: 05:39. Часовой пояс GMT +3.
Powered by vBulletin® Version 3.8.10
Copyright ©2000 - 2018, vBulletin Solutions, Inc. Перевод: zCarot
© 2008 - 2018 Taifun With Song
Яндекс.Метрика