1
[Альбом] Scatman John - Everybody Jam! - TAIFUN With Song
TAIFUN With Song
Навигация
Вернуться   TAIFUN With Song > Music (обменник) > Club & Electronic Music > Eurodance
Расширенный поиск
Eurodance Это ответвление пришло в начале 90-х, когда волна коммерческой музыки захлестнула Европу. Также как в 80-х диско называли типично клубной музыкой, в 90-х сформировалось направление, единственной целью которого было заставить людей танцевать. Говоря проще, основа осталась хаусовской, однако были удалены все неблагозвучные мелодические сочетание, вокал сделался более "сладким", "сложные" для восприятия рядового слушателя синкопы также были отброшены. В результате получилась простенькая и доступная музыка с незатейливым ритмом и простой аранжировкой.

А знаете ли Вы, что...
Какой музыкальный инструмент извлекает звуки из сталактитов одной американской пещеры?
«В американском штате Вирджиния находятся Лурейские пещеры, где установлен уникальный музыкальный инструмент — орган из сталактитов. 37 разных по тону сталактитов подключены к трубочной системе традиционного органа и управляются с обычной органной клавиатуры.»
 
Опции темы

  #1
Старый 23.07.2017, 23:28
sergych
Координатор
Досье
 
Аватар для sergych
Релиз Scatman John - Everybody Jam!


1996 - Scatman John - Everybody Jam!




Исполнитель/Artist: Scatman John
Альбом/Album: Everybody Jam!
Год/Year: 1996
Жанр/Genre: Pop, Eurodance, house, techno, scat
Страна/Country: Япония
Рекорд-лейбл/Record label: RCA
Номер в каталоге/Catalogue #: BVCP-937 (74321-37784-2)
Формат/Format: Free Lossless Audio Codec (*.flac)
Качество/Quality: Lossless
Тип рипа/RIP Type: image+.cue
Продолжительность/Length: 01:12:34
Источник/Source: Собственный рип
Размер/Size: 580.7 MB

Сканы в комплекте

Треклист

01. Stop The Rain [0:04:06.25]
02. Everybody Jam! [Single Jam] [0:03:31.30]
03. The Invisible Man [0:03:26.45]
04. Let It Go [0:03:47.53]
05. Message To You [0:03:36.22]
06. (I Want To) Be Someone [0:03:17.05]
07. Scatmusic [0:03:57.28]
08. Shut Your Mouth And Open Your Mind [0:03:54.42]
09. (We Got To Learn To) Live Together [0:03:52.45]
10. Ballad Of Love [0:03:42.28]
11. People Of The Generation [0:03:44.17]
12. Lebanon [0:03:34.23]
13. U-Turn [0:03:47.52]
14. Everybody Jam! [Club Jam] [0:05:41.60]

Japanese bonus tracks
15. Paa Pee Poo Pae Po [0:03:50.45]
16. I'm Free [0:03:37.05]
17. Jazzology [0:03:53.00]
18. Pripri Scat [Radio Edit] [0:03:16.13]
19. Su Su Su Super Ki Re i [Radio Edit] [0:03:56.62]
[свернуть]

youtube.com

[свернуть]

EAC лог

Exact Audio Copy V1.3 from 2. September 2016

EAC extraction logfile from 22. July 2017, 22:42

Scatman John / Everybody Jam!

Used drive : PLEXTOR DVDR PX-716A Adapter: 1 ID: 0

Read mode : Secure
Utilize accurate stream : Yes
Defeat audio cache : Yes
Make use of C2 pointers : No

Read offset correction : 30
Overread into Lead-In and Lead-Out : No
Fill up missing offset samples with silence : Yes
Delete leading and trailing silent blocks : No
Null samples used in CRC calculations : Yes
Used interface : Installed external ASPI interface

Used output format : User Defined Encoder
Selected bitrate : 1024 kBit/s
Quality : High
Add ID3 tag : No
Command line compressor : C:\Program Files (x86)\Exact Audio Copy\Flac\flac.exe
Additional command line options : -6 -V -T "ARTIST=%artist%" -T "TITLE=%title%" -T "ALBUM=%albumtitle%" -T "DATE=%year%" -T "TRACKNUMBER=%tracknr%" -T "GENRE=%genre%" -T "COMMENT=%comment%" -T "BAND=%albuminterpret%" -T "ALBUMARTIST=%albuminterpret%" -T "COMPOSER=%composer%" %haslyrics%--tag-from-file=LYRICS="%lyricsfile%"%haslyrics% -T "DISCNUMBER=%cdnumber%" -T "TOTALDISCS=%totalcds%" -T "TOTALTRACKS=%numtracks%" %hascover%--picture="%coverfile%"%hascover% %source% -o %dest%


TOC of the extracted CD

Track | Start | Length | Start sector | End sector
---------------------------------------------------------
1 | 0:00.37 | 4:06.25 | 37 | 18511
2 | 4:06.62 | 3:31.30 | 18512 | 34366
3 | 7:38.17 | 3:26.45 | 34367 | 49861
4 | 11:04.62 | 3:47.53 | 49862 | 66939
5 | 14:52.40 | 3:36.22 | 66940 | 83161
6 | 18:28.62 | 3:17.05 | 83162 | 97941
7 | 21:45.67 | 3:57.28 | 97942 | 115744
8 | 25:43.20 | 3:54.42 | 115745 | 133336
9 | 29:37.62 | 3:52.45 | 133337 | 150781
10 | 33:30.32 | 3:42.28 | 150782 | 167459
11 | 37:12.60 | 3:44.17 | 167460 | 184276
12 | 40:57.02 | 3:34.23 | 184277 | 200349
13 | 44:31.25 | 3:47.52 | 200350 | 217426
14 | 48:19.02 | 5:41.60 | 217427 | 243061
15 | 54:00.62 | 3:50.45 | 243062 | 260356
16 | 57:51.32 | 3:37.05 | 260357 | 276636
17 | 61:28.37 | 3:53.00 | 276637 | 294111
18 | 65:21.37 | 3:16.13 | 294112 | 308824
19 | 68:37.50 | 3:56.62 | 308825 | 326586


Range status and errors

Selected range

Filename C:\mm\Scatman John\1996 - Everybody Jam! [BVCP-937 (74321-37784-2)]\Scatman John - Everybody Jam!.wav

Peak level 100.0 %
Extraction speed 11.2 X
Range quality 99.9 %
Test CRC 8AAB8DE0
Copy CRC 8AAB8DE0
Copy OK

No errors occurred

End of status report

---- CUETools DB Plugin V2.1.6

[CTDB TOCID: pvgamEuphf9G3YUSpi09pQI9WY0-] found
Submit result: pvgamEuphf9G3YUSpi09pQI9WY0- has been confirmed
Track | CTDB Status
1 | (7/7) Accurately ripped
2 | (7/7) Accurately ripped
3 | (7/7) Accurately ripped
4 | (7/7) Accurately ripped
5 | (7/7) Accurately ripped
6 | (7/7) Accurately ripped
7 | (7/7) Accurately ripped
8 | (7/7) Accurately ripped
9 | (7/7) Accurately ripped
10 | (7/7) Accurately ripped
11 | (7/7) Accurately ripped
12 | (7/7) Accurately ripped
13 | (7/7) Accurately ripped
14 | (7/7) Accurately ripped
15 | (7/7) Accurately ripped
16 | (7/7) Accurately ripped
17 | (7/7) Accurately ripped
18 | (7/7) Accurately ripped
19 | (7/7) Accurately ripped
[свернуть]

Файл CUE

REM GENRE Eurodance
REM DATE 1996
REM DISCID 07110213
REM COMMENT "ExactAudioCopy v1.3"
PERFORMER "Scatman John"
TITLE "Everybody Jam!"
REM COMPOSER ""
FILE "Scatman John - Everybody Jam!.flac" WAVE
TRACK 01 AUDIO
TITLE "Stop The Rain"
PERFORMER "Scatman John"
REM COMPOSER ""
INDEX 00 00:00:00
INDEX 01 00:00:37
TRACK 02 AUDIO
TITLE "Everybody Jam! [Single Jam]"
PERFORMER "Scatman John"
REM COMPOSER ""
INDEX 00 04:05:61
INDEX 01 04:06:62
TRACK 03 AUDIO
TITLE "The Invisible Man"
PERFORMER "Scatman John"
REM COMPOSER ""
INDEX 00 07:36:66
INDEX 01 07:38:17
TRACK 04 AUDIO
TITLE "Let It Go"
PERFORMER "Scatman John"
REM COMPOSER ""
INDEX 00 11:03:28
INDEX 01 11:04:62
TRACK 05 AUDIO
TITLE "Message To You"
PERFORMER "Scatman John"
REM COMPOSER ""
INDEX 00 14:51:33
INDEX 01 14:52:40
TRACK 06 AUDIO
TITLE "(I Want To) Be Someone"
PERFORMER "Scatman John"
REM COMPOSER ""
INDEX 00 18:27:51
INDEX 01 18:28:62
TRACK 07 AUDIO
TITLE "Scatmusic"
PERFORMER "Scatman John"
REM COMPOSER ""
INDEX 00 21:44:36
INDEX 01 21:45:67
TRACK 08 AUDIO
TITLE "Shut Your Mouth And Open Your Mind"
PERFORMER "Scatman John"
REM COMPOSER ""
INDEX 00 25:41:48
INDEX 01 25:43:20
TRACK 09 AUDIO
TITLE "(We Got To Learn To) Live Together"
PERFORMER "Scatman John"
REM COMPOSER ""
INDEX 00 29:36:11
INDEX 01 29:37:62
TRACK 10 AUDIO
TITLE "Ballad Of Love"
PERFORMER "Scatman John"
REM COMPOSER ""
INDEX 00 33:28:13
INDEX 01 33:30:32
TRACK 11 AUDIO
TITLE "People Of The Generation"
PERFORMER "Scatman John"
REM COMPOSER ""
INDEX 00 37:11:18
INDEX 01 37:12:60
TRACK 12 AUDIO
TITLE "Lebanon"
PERFORMER "Scatman John"
REM COMPOSER ""
INDEX 00 40:55:48
INDEX 01 40:57:02
TRACK 13 AUDIO
TITLE "U-Turn"
PERFORMER "Scatman John"
REM COMPOSER ""
INDEX 00 44:30:13
INDEX 01 44:31:25
TRACK 14 AUDIO
TITLE "Everybody Jam! [Club Jam]"
PERFORMER "Scatman John"
REM COMPOSER ""
INDEX 00 48:17:71
INDEX 01 48:19:02
TRACK 15 AUDIO
TITLE "Paa Pee Poo Pae Po"
PERFORMER "Scatman John"
REM COMPOSER ""
INDEX 00 53:59:46
INDEX 01 54:00:62
TRACK 16 AUDIO
TITLE "I'm Free"
PERFORMER "Scatman John"
REM COMPOSER ""
INDEX 00 57:50:33
INDEX 01 57:51:32
TRACK 17 AUDIO
TITLE "Jazzology"
PERFORMER "Scatman John"
REM COMPOSER ""
INDEX 00 61:26:38
INDEX 01 61:28:37
TRACK 18 AUDIO
TITLE "Pripri Scat [Radio Edit]"
PERFORMER "Scatman John"
REM COMPOSER ""
INDEX 00 65:20:31
INDEX 01 65:21:37
TRACK 19 AUDIO
TITLE "Su Su Su Super [Radio Edit]"
PERFORMER "Scatman John"
REM COMPOSER ""
INDEX 00 68:36:26
INDEX 01 68:37:50
[свернуть]

Лог проверки качества

AUDIOCHECKER v2.0 beta (build 457) - by Dester - [Ссылки могут видеть только зарегистрированные и активированные пользователи.]
[Only registered and activated users can see links.]
~~~~~~~~~~~~~~~~~~~~~~~~~~~~~~~~~~
-=== НЕ РЕДАКТИРУЙТЕ ЭТОТ ФАЙЛ! ===-

Путь: ...\1996 - Everybody Jam! [BVCP-937 (74321-37784-2)]

1 -=- Scatman John - Everybody Jam!.flac -=- CDDA (100%)

1896100
[свернуть]

Спектр частот

[свернуть]

Скачать Scatman John - Everybody Jam!

[Ссылки могут видеть только зарегистрированные и активированные пользователи.]
[Only registered and activated users can see links.]

password: sergych
[свернуть]

Контрольная сумма (хеш-сумма) архива

MD5: 6706921415e000601212f74f4af37fcc
[свернуть]
My opinion of release: 10/10
__________________
TAIFUN.Wings of Soul

Вверх
2 пользователя(ей) сказали cпасибо:
johnsilver (24.07.2017), swint68 (24.07.2017)
Похожие темы
Тема Автор Раздел Ответов Последнее сообщение
Live John Mayer Trio - Try! John Mayer Trio Live In Concert sergych Blues Rock 0 16.05.2016 19:29
Альбом Scatman John - Scatman's World sergych Eurodance 0 28.12.2014 19:39
Альбом John Pizzarelli - One Night With You. The John Pizzarelli Collection sergych Jazz и Blues 0 20.12.2014 08:45
Live John Mayer Trio - Where the Light Is: John Mayer Live in Los Angeles sergych Blues Rock 0 21.02.2012 19:59
Альбом John Fogerty - The Long Road Home /The Ultimate John Fogerty. Creedence Collection PUPOKIN Rock 0 08.06.2009 12:11


Метки
1996 , eurodance , everybody jam! , house , pop , scat , scatman john , techno

Опции темы

Ваши права в разделе
Вы не можете создавать новые темы
Вы не можете отвечать в темах
Вы не можете прикреплять вложения
Вы не можете редактировать свои сообщения

Быстрый переход



Текущее время: 20:26. Часовой пояс GMT +3.
Powered by vBulletin® Version 3.8.10
Copyright ©2000 - 2018, vBulletin Solutions, Inc. Перевод: zCarot
© 2008 - 2018 Taifun With Song
Яндекс.Метрика