1
[Альбом] Kenny Chesney - Be As You Are (Songs From An Old Blue Chair) - TAIFUN With Song
TAIFUN With Song
Навигация
Вернуться   TAIFUN With Song > Music (обменник) > Другие направления музыки > Этническая музыка > Country
Расширенный поиск
Country Кантри объединяет две разновидности американского фольклора — это музыка белых поселенцев, обосновавшихся в Новом Свете в XVII—XVIII вв. и ковбойские баллады Дикого Запада. В этой музыке сильно наследие елизаветинских мадригалов, ирландской и шотландской народной музыки. Основные музыкальные инструменты этого стиля — гитара, банджо и скрипка.

А знаете ли Вы, что...
Хобби Альберта Эйнштейна!
«Эйнштейн любил играть на скрипке и однажды принял участие в благотворительном концерте в Германии.»
 
Опции темы

  #1
Старый 07.01.2016, 01:07
sergych
Координатор
Досье
 
Аватар для sergych
Релиз Kenny Chesney - Be As You Are (Songs From An Old Blue Chair)


2004 - Kenny Chesney - Be As You Are (Songs From An Old Blue Chair)




Исполнитель/Artist: Kenny Chesney
Альбом/Album: Be As You Are (Songs From An Old Blue Chair)
Год/Year: 2004
Жанр/Genre: Country, Country rock
Страна/Country: Соединённые Штаты
Рекорд-лейбл/Record label: BNA Records
Номер в каталоге/Catalogue #: BNA82876-61530-2
Формат/Format: Free Lossless Audio Codec (*.flac)
Качество/Quality: Lossless
Тип рипа/RIP Type: image+.cue
Продолжительность/Length: 00:55:13
Источник/Source: Собственный рип
Размер/Size: 388.9 MB

Сканы в комплекте

Треклист

01. Old Blue Chair [0:03:24.20]
02. Be As You Are [0:04:19.32]
03. Guitars And Tiki Bars [0:04:36.30]
04. Island Boy [0:03:56.38]
05. Somewhere In The Sun [0:04:45.05]
06. Boston [0:04:16.27]
07. Something Sexy About The Rain [0:05:24.30]
08. French Kissing Life [0:04:02.48]
09. Key Lime Pie [0:04:40.32]
10. Sherry's Living In Paradise [0:03:20.23]
11. Magic [0:04:40.65]
12. Soul Of A Sailor [0:04:14.17]
13. Old Blue Chair (Ocean Mix) [0:03:31.63]
[свернуть]

youtube.com

[свернуть]

Исполнители/Performers

Kenny Chesney - lead vocals
Uncle Kracker - vocals on "When the Sun Goes Down"
Melonie Cannon, Neil Thrasher, Wes Hightower, Wyatt Beard - background vocals
Chad Cromwell, Eddie Bayers - drums
Paul Leim - drums, percussion, finger snaps, tambourine
Mat Britain, Tom Roady - steel drums, percussion
Clayton Mitchell, Dann Huff, John Jorgenson, J. T. Corenflos - electric guitar
Pat Buchanan - electric guitar, harmonica
Dan Dugmore, Scotty Sanders, Sonny Garrish - steel guitar
John Willis - electric guitar, acoustic guitar, nylon string guitar
B. James Lowry - acoustic guitar, nylon string guitar, bottleneck guitar
Larry Paxton - bass guitar
Tim Hensley - banjo, background vocals
Rob Hajacos - fiddle
John Hobbs - piano, B3 organ
Randy McCormick - piano, B3 organ, keyboards, synthesizer
Gary Prim - piano, wurlitzer electric piano, synthesizer
Steve Nathan - wurlitzer electric piano, B3 organ
Sean Paddock - percussion
[свернуть]

EAC лог

Exact Audio Copy V1.1 from 23. June 2015

EAC extraction logfile from 2. January 2016, 14:49

Kenny Chesney / Be As You Are (Songs From An Old Blue Chair)

Used drive : ATAPI iHAS124 D Adapter: 0 ID: 2

Read mode : Secure
Utilize accurate stream : Yes
Defeat audio cache : Yes
Make use of C2 pointers : No

Read offset correction : 6
Overread into Lead-In and Lead-Out : No
Fill up missing offset samples with silence : Yes
Delete leading and trailing silent blocks : No
Null samples used in CRC calculations : Yes
Used interface : Installed external ASPI interface

Used output format : User Defined Encoder
Selected bitrate : 1024 kBit/s
Quality : High
Add ID3 tag : Yes
Command line compressor : C:\Program Files (x86)\Exact Audio Copy\Flac\flac.exe
Additional command line options : -6 -V -T "ARTIST=%artist%" -T "TITLE=%title%" -T "ALBUM=%albumtitle%" -T "DATE=%year%" -T "TRACKNUMBER=%tracknr%" -T "GENRE=%genre%" -T "COMMENT=%comment%" -T "BAND=%albuminterpret%" -T "COMPOSER=%composer%" %haslyrics%--tag-from-file=LYRICS="%lyricsfile%"%haslyrics% -T "DISCNUMBER=%cdnumber%" -T "TOTALDISCS=%totalcds%" -T "TOTALTRACKS=%numtracks%" %hascover%--picture="%coverfile%"%hascover% %source% -o %dest%


TOC of the extracted CD

Track | Start | Length | Start sector | End sector
---------------------------------------------------------
1 | 0:00.00 | 3:24.20 | 0 | 15319
2 | 3:24.20 | 4:19.32 | 15320 | 34776
3 | 7:43.52 | 4:36.30 | 34777 | 55506
4 | 12:20.07 | 3:56.38 | 55507 | 73244
5 | 16:16.45 | 4:45.05 | 73245 | 94624
6 | 21:01.50 | 4:16.27 | 94625 | 113851
7 | 25:18.02 | 5:24.30 | 113852 | 138181
8 | 30:42.32 | 4:02.48 | 138182 | 156379
9 | 34:45.05 | 4:40.32 | 156380 | 177411
10 | 39:25.37 | 3:20.23 | 177412 | 192434
11 | 42:45.60 | 4:40.65 | 192435 | 213499
12 | 47:26.50 | 4:14.17 | 213500 | 232566
13 | 51:40.67 | 3:31.63 | 232567 | 248454


Range status and errors

Selected range

Filename C:\mm\Kenny Chesney\2004 - Be As You Are (Songs From An Old Blue Chair) [BNA82876-61530-2]\Kenny Chesney - Be As You Are (Songs From An Old Blue Chair).wav

Peak level 94.3 %
Extraction speed 9.4 X
Range quality 99.9 %
Test CRC 504335A4
Copy CRC 504335A4
Copy OK

No errors occurred


AccurateRip summary

Track 1 accurately ripped (confidence 26) [E5AA4EAA] (AR v2)
Track 2 accurately ripped (confidence 26) [F5B62816] (AR v2)
Track 3 accurately ripped (confidence 28) [7A08821E] (AR v2)
Track 4 accurately ripped (confidence 27) [A24A9C01] (AR v2)
Track 5 accurately ripped (confidence 26) [E5740A62] (AR v2)
Track 6 accurately ripped (confidence 26) [F1BEE2C6] (AR v2)
Track 7 accurately ripped (confidence 25) [4FE920E0] (AR v2)
Track 8 accurately ripped (confidence 25) [DF3682CB] (AR v2)
Track 9 accurately ripped (confidence 26) [7695EF96] (AR v2)
Track 10 accurately ripped (confidence 26) [2F0402BB] (AR v2)
Track 11 accurately ripped (confidence 25) [B882F8A7] (AR v2)
Track 12 accurately ripped (confidence 25) [534FA993] (AR v2)
Track 13 accurately ripped (confidence 27) [C941A4B2] (AR v2)

All tracks accurately ripped

End of status report
[свернуть]

Файл CUE

REM GENRE Country
REM DATE 2004
REM DISCID B60CF00D
REM COMMENT "ExactAudioCopy v1.1"
PERFORMER "Kenny Chesney"
TITLE "Be As You Are (Songs From An Old Blue Chair)"
FILE "Kenny Chesney - Be As You Are (Songs From An Old Blue Chair).flac" WAVE
TRACK 01 AUDIO
TITLE "Old Blue Chair"
PERFORMER "Kenny Chesney"
INDEX 01 00:00:00
TRACK 02 AUDIO
TITLE "Be As You Are"
PERFORMER "Kenny Chesney"
INDEX 01 03:24:20
TRACK 03 AUDIO
TITLE "Guitars And Tiki Bars"
PERFORMER "Kenny Chesney"
INDEX 01 07:43:52
TRACK 04 AUDIO
TITLE "Island Boy"
PERFORMER "Kenny Chesney"
INDEX 01 12:20:07
TRACK 05 AUDIO
TITLE "Somewhere In The Sun"
PERFORMER "Kenny Chesney"
INDEX 01 16:16:45
TRACK 06 AUDIO
TITLE "Boston"
PERFORMER "Kenny Chesney"
INDEX 01 21:01:50
TRACK 07 AUDIO
TITLE "Something Sexy About The Rain"
PERFORMER "Kenny Chesney"
INDEX 01 25:18:02
TRACK 08 AUDIO
TITLE "French Kissing Life"
PERFORMER "Kenny Chesney"
INDEX 01 30:42:32
TRACK 09 AUDIO
TITLE "Key Lime Pie"
PERFORMER "Kenny Chesney"
INDEX 01 34:45:05
TRACK 10 AUDIO
TITLE "Sherry's Living In Paradise"
PERFORMER "Kenny Chesney"
INDEX 01 39:25:37
TRACK 11 AUDIO
TITLE "Magic"
PERFORMER "Kenny Chesney"
INDEX 01 42:45:60
TRACK 12 AUDIO
TITLE "Soul Of A Sailor"
PERFORMER "Kenny Chesney"
INDEX 01 47:26:50
TRACK 13 AUDIO
TITLE "Old Blue Chair (Ocean Mix)"
PERFORMER "Kenny Chesney"
INDEX 01 51:40:67
[свернуть]

Лог проверки качества

AUDIOCHECKER v2.0 beta (build 457) - by Dester - [Ссылки могут видеть только зарегистрированные и активированные пользователи.]
[Only registered and activated users can see links.]
~~~~~~~~~~~~~~~~~~~~~~~~~~~~~~~~~~
-=== НЕ РЕДАКТИРУЙТЕ ЭТОТ ФАЙЛ! ===-

Путь: ...\2004 - Be As You Are (Songs From An Old Blue Chair) [BNA82876-61530-2]

1 -=- Kenny Chesney - Be As You Are (Songs From An Old Blue Chair).flac -=- CDDA (100%)

35603508
[свернуть]

Спектр частот

[свернуть]

Скачать Kenny Chesney - Be As You Are (Songs From An Old Blue Chair)

[Ссылки могут видеть только зарегистрированные и активированные пользователи.]
[Only registered and activated users can see links.]

password: sergych
[свернуть]
My opinion of release: 10/10
__________________
TAIFUN.Wings of Soul

Вверх
Похожие темы
Тема Автор Раздел Ответов Последнее сообщение
Альбом Kenny Chesney - The Big Revival sergych Country 0 17.11.2015 22:11
Live Kenny G - Kenny G Live sergych Jazz и Blues 0 14.06.2015 20:47
Сборник Chris Rea - Blue Guitars: A Collection Of Songs sergych Blues Rock 0 06.11.2013 20:28
Релиз Kenny Chesney - Hemingways Whiskey PUPOKIN Country 0 25.09.2010 10:46


Метки
2004 , be as you are (songs from an old blue chair) , country , country rock , kenny chesney

Опции темы

Ваши права в разделе
Вы не можете создавать новые темы
Вы не можете отвечать в темах
Вы не можете прикреплять вложения
Вы не можете редактировать свои сообщения

Быстрый переход



Текущее время: 01:57. Часовой пояс GMT +3.
Powered by vBulletin® Version 3.8.10
Copyright ©2000 - 2018, vBulletin Solutions, Inc. Перевод: zCarot
© 2008 - 2018 Taifun With Song
Яндекс.Метрика