1
[Альбом] Lazer Lloyd & The Folk Spirit Blues - Higher Ground - TAIFUN With Song
TAIFUN With Song
Навигация
Вернуться   TAIFUN With Song > Music (обменник) > Другие направления музыки > Jazz и Blues
Расширенный поиск
Jazz и Blues Гибкая ритмика, импровизационное начало, гармонии и мелодии - все это Jazz. Blues - жизнеутверждающая музыка, рожденная из душевной боли

А знаете ли Вы, что...
Кто написал сонату, в которой имитируется половой акт?
«Чешский авангардный композитор Эрвин Шульгоф в 1919 году написал Эротическую сонату, которая по сей день исполняется на музыкальных фестивалях. Фактически соната состоит из одной партии для женского голоса, имитирующего стоны и вздохи при половом акте.»
 
Опции темы

  #1
Старый 04.10.2015, 05:16
igoryok63
Меломан
Досье
 
Аватар для igoryok63
По умолчанию Lazer Lloyd & The Folk Spirit Blues - Higher Ground


2004 - Lazer Lloyd & The Folk Spirit Blues - Higher Ground (2004)




Исполнитель/Artist: Lazer Lloyd
Альбом/Album: Higher Ground
Год/Year: 2004
Жанр/Genre: Blues Rock
Страна/Country: Израиль
Рекорд-лейбл/Record label: Lazerlloyd Records
Формат/Format: Free Lossless Audio Codec (*.flac)
Качество/Quality: Lossless
Тип рипа/RIP Type: image+.cue
Продолжительность/Length: 00:59:50
Размер/Size: 356.53 MB


Треклист

01. Hey Hey - 5:16
02. Peace, Love, Joy - 4:20
03. Monday Is Gone - 3:49
04. 2 A.M. - 2:12
05. Life Goes On - 5:58
06. See You Smile - 4:20
07. Got To Know - 7:04
08. Blues For Joey - 2:20
09. Higher Ground - 6:22
10. On The Edge - 7:12
11. Lazer's Shuffle - 5:14
12. We Are All - 5:43
[свернуть]

EAC лог

Exact Audio Copy V1.0 beta 4 from 7. December 2014

EAC extraction logfile from 14. June 2015, 8:15

Lazer Lloyd & The Folk Spirit Blues / Higher Ground

Used drive : HL-DT-STDVDRAM GSA-H44N Adapter: 1 ID: 0

Read mode : Secure
Utilize accurate stream : Yes
Defeat audio cache : Yes
Make use of C2 pointers : No

Read offset correction : 667
Overread into Lead-In and Lead-Out : No
Fill up missing offset samples with silence : Yes
Delete leading and trailing silent blocks : No
Null samples used in CRC calculations : Yes
Used interface : Native Win32 interface for Win NT & 2000

Used output format : User Defined Encoder
Selected bitrate : 768 kBit/s
Quality : High
Add ID3 tag : No
Command line compressor : C:\Program Files (x86)\Exact Audio Copy\FLAC\FLAC.EXE
Additional command line options : -6 -V -T "ARTIST=%artist%" -T "TITLE=%title%" -T "ALBUM=%albumtitle%" -T "DATE=%year%" -T "TRACKNUMBER=%tracknr%" -T "GENRE=%genre%" -T "COMMENT=%comment%" -T "BAND=%albuminterpret%" -T "ALBUMARTIST=%albuminterpret%" -T "COMPOSER=%composer%" %haslyrics%--tag-from-file=LYRICS="%lyricsfile%"%haslyrics% -T "DISCNUMBER=%cdnumber%" -T "TOTALDISCS=%totalcds%" -T "TOTALTRACKS=%numtracks%" %hascover%--picture="%coverfile%"%hascover% %source% -o %dest%


TOC of the extracted CD

Track | Start | Length | Start sector | End sector
---------------------------------------------------------
1 | 0:00.00 | 5:18.64 | 0 | 23913
2 | 5:18.64 | 4:22.44 | 23914 | 43607
3 | 9:41.33 | 3:51.32 | 43608 | 60964
4 | 13:32.65 | 2:14.19 | 60965 | 71033
5 | 15:47.09 | 6:01.00 | 71034 | 98108
6 | 21:48.09 | 4:22.25 | 98109 | 117783
7 | 26:10.34 | 7:06.13 | 117784 | 149746
8 | 33:16.47 | 2:23.00 | 149747 | 160471
9 | 35:39.47 | 6:24.67 | 160472 | 189338
10 | 42:04.39 | 7:14.65 | 189339 | 221953
11 | 49:19.29 | 5:16.42 | 221954 | 245695
12 | 54:35.71 | 5:43.71 | 245696 | 271491


Range status and errors

Selected range

Filename K:\ Lazer Lloyd\Lazer Lloyd & The Folk Spirit Blues - Higher Ground (2004)\Lazer Lloyd & The Folk Spirit Blues - Higher Ground.wav

Peak level 100.0 %
Extraction speed 7.1 X
Range quality 100.0 %
Copy CRC D3390842
Copy OK

No errors occurred

End of status report
[свернуть]

Лог проверки качества

AUDIOCHECKER v2.0 beta (build 457) - by Dester - [Ссылки могут видеть только зарегистрированные и активированные пользователи.]
[Only registered and activated users can see links.]
~~~~~~~~~~~~~~~~~~~~~~~~~~~~~~~~~~
-=== DO NOT EDIT THIS FILE! ===-

Path: ...\Lazer Lloyd & The Folk Spirit Blues - Higher Ground (2004)

1 -=- Lazer Lloyd & The Folk Spirit Blues - Higher Ground.flac -=- CDDA (99%)

212753828
[свернуть]

Скачать Lazer Lloyd & The Folk Spirit Blues - Higher Ground (2004)

[Ссылки могут видеть только зарегистрированные и активированные пользователи.]
[Only registered and activated users can see links.] ***[Ссылки могут видеть только зарегистрированные и активированные пользователи.]
[Only registered and activated users can see links.]
[свернуть]
Release info RInfo

Password in archive: nota304

Вверх
2 пользователя(ей) сказали cпасибо:
sergych (05.10.2015), TAIFUN (08.10.2015)
Похожие темы
Тема Автор Раздел Ответов Последнее сообщение
Альбом Lazer Lloyd - Unplugged igoryok63 Jazz и Blues 0 04.10.2015 05:13
Альбом Lazer Lloyd - Lazer Lloyd igoryok63 Jazz и Blues 0 04.10.2015 05:09
Альбом Lazer Lloyd - My Own Blues igoryok63 Jazz и Blues 0 04.10.2015 05:00
Релиз ReinXeed - Higher PUPOKIN Power Metal 0 08.12.2009 11:55
Сборник ElectroBiT - Higher State DarkDan Сборники 0 28.06.2008 21:38


Метки
2004 , blues rock , higher ground , lazer lloyd

Опции темы

Ваши права в разделе
Вы не можете создавать новые темы
Вы не можете отвечать в темах
Вы не можете прикреплять вложения
Вы не можете редактировать свои сообщения

Быстрый переход



Текущее время: 01:56. Часовой пояс GMT +3.
Powered by vBulletin® Version 3.8.10
Copyright ©2000 - 2018, vBulletin Solutions, Inc. Перевод: zCarot
© 2008 - 2018 Taifun With Song
Яндекс.Метрика