TAIFUN With Song
Навигация
Вернуться   TAIFUN With Song > Music (обменник) > Chill Out > Chillout
Расширенный поиск
Chillout Chillout (чилл-аут) — стиль электронной музыки, название пошло от сленгового слова, означающего «расслабление». Зародился стиль в начале 90-х, тогдашний chillout был относительно выдержанным и медленным. В это время было выпущено несколько основополагающих альбомов с приставкой «Chill Out» в названии. Эти альбомы были тесно связаны также со стилями даун-темпо, трип-хоп, медленными вариантами хаус-музыки, ню-джаза, псибиента и лаунжа. На этот музыкальный стиль также повлияли транс, эмбиент и стиль творческой танцевальной музыки (IDM). Термин «chillout» в основном используется для описания расслабляющей музыки. К chillout неверно относить различного рода гипнотические ритмы, это скорее «софт-техно».

А знаете ли Вы, что...
Какое совпадение связало смерти солиста Boney M и Григория Распутина?
«Бобби Фаррелл, единственный мужчина в диско-группе Boney M, во время исполнения одного из главных хитов группы «Rasputin» часто гримировался в образ Распутина. Фаррелл умер от остановки сердца во время гастролей в Санкт-Петербурге 30 декабря 2010 года — того же числа и в том же городе, что и сам Распутин.»
 
Опции темы

  #1
Старый 25.10.2015, 12:08
sergych
Координатор
Досье
 
Аватар для sergych
Релиз ABBA - En Bossa Nova by Holly Wilson


2011 - ABBA - En Bossa Nova by Holly Wilson




Исполнитель/Artist: Holly Wilson
Альбом/Album: ABBA En Bossa Nova
Год/Year: 2011
Жанр/Genre: Bossa nova, Chillout, pop
Страна/Country: Аргентина
Рекорд-лейбл/Record label: Barca
Номер в каталоге/Catalogue #: SLC 700
Формат/Format: Free Lossless Audio Codec (*.flac)
Качество/Quality: Lossless
Тип рипа/RIP Type: image+.cue
Продолжительность/Length: 00:42:26
Источник/Source: Собственный рип
Размер/Size: 321.7 MB

Сканы в комплекте

Треклист

01. Dancing Queen [0:04:06.22]
02. I Have A Dream [0:04:58.74]
03. Gimme! Gimme! Gimme! (A Man After Midnight) [0:03:08.36]
04. The Winner Takes It All [0:04:35.71]
05. Knowing Me, Knowing You [0:04:14.34]
06. Take A Chance On Me [0:03:53.08]
07. Fernando [0:04:41.29]
08. Mamma Mia [0:04:07.06]
09. Chiquitita [0:05:12.38]
10. Honey, Honey [0:03:27.43]
[свернуть]

EAC лог

Exact Audio Copy V1.0 beta 3 from 29. August 2011

EAC extraction logfile from 10. October 2015, 20:04

Holly Wilson / ABBA en Bossa Nova

Used drive : ATAPI iHAS124 D Adapter: 0 ID: 2

Read mode : Secure
Utilize accurate stream : Yes
Defeat audio cache : Yes
Make use of C2 pointers : No

Read offset correction : 6
Overread into Lead-In and Lead-Out : No
Fill up missing offset samples with silence : Yes
Delete leading and trailing silent blocks : No
Null samples used in CRC calculations : Yes
Used interface : Installed external ASPI interface

Used output format : User Defined Encoder
Selected bitrate : 1024 kBit/s
Quality : High
Add ID3 tag : No
Command line compressor : C:\Program Files (x86)\Exact Audio Copy\Flac\flac.exe
Additional command line options : -6 -V -T "ARTIST=%artist%" -T "TITLE=%title%" -T "ALBUM=%albumtitle%" -T "DATE=%year%" -T "TRACKNUMBER=%tracknr%" -T "GENRE=%genre%" -T "COMMENT=%comment%" -T "BAND=%albuminterpret%" -T "COMPOSER=%composer%" %haslyrics%--tag-from-file=LYRICS="%lyricsfile%"%haslyrics% -T "DISCNUMBER=%cdnumber%" -T "TOTALDISCS=%totalcds%" -T "TOTALTRACKS=%numtracks%" %hascover%--picture="%coverfile%"%hascover% %source% -o %dest%


TOC of the extracted CD

Track | Start | Length | Start sector | End sector
---------------------------------------------------------
1 | 0:00.00 | 4:06.22 | 0 | 18471
2 | 4:06.22 | 4:58.74 | 18472 | 40895
3 | 9:05.21 | 3:08.36 | 40896 | 55031
4 | 12:13.57 | 4:35.71 | 55032 | 75727
5 | 16:49.53 | 4:14.34 | 75728 | 94811
6 | 21:04.12 | 3:53.08 | 94812 | 112294
7 | 24:57.20 | 4:41.29 | 112295 | 133398
8 | 29:38.49 | 4:07.06 | 133399 | 151929
9 | 33:45.55 | 5:12.38 | 151930 | 175367
10 | 38:58.18 | 3:27.43 | 175368 | 190935


Range status and errors

Selected range

Filename C:\mm\ABBA\_Va\2011 - ABBA En Bossa Nova by Holy Wilson [SLC 700]\Holly Wilson - ABBA en Bossa Nova.wav

Peak level 100.0 %
Extraction speed 8.6 X
Range quality 100.0 %
Test CRC E5864647
Copy CRC E5864647
Copy OK

No errors occurred


AccurateRip summary

Track 1 not present in database
Track 2 not present in database
Track 3 not present in database
Track 4 not present in database
Track 5 not present in database
Track 6 not present in database
Track 7 not present in database
Track 8 not present in database
Track 9 not present in database
Track 10 not present in database

None of the tracks are present in the AccurateRip database

End of status report
[свернуть]

Файл CUE

REM GENRE Latin
REM DATE 2011
REM DISCID 7C09F10A
REM COMMENT "ExactAudioCopy v1.0b3"
PERFORMER "Holly Wilson"
TITLE "ABBA en Bossa Nova"
FILE "Holly Wilson - ABBA en Bossa Nova.flac" WAVE
TRACK 01 AUDIO
TITLE "Dancing Queen"
PERFORMER "Holly Wilson"
INDEX 01 00:00:00
TRACK 02 AUDIO
TITLE "I Have A Dream"
PERFORMER "Holly Wilson"
INDEX 00 04:04:22
INDEX 01 04:06:22
TRACK 03 AUDIO
TITLE "Gimme! Gimme! Gimme! (A Man After Midnight)"
PERFORMER "Holly Wilson"
INDEX 00 09:03:21
INDEX 01 09:05:21
TRACK 04 AUDIO
TITLE "The Winner Takes It All"
PERFORMER "Holly Wilson"
INDEX 00 12:11:57
INDEX 01 12:13:57
TRACK 05 AUDIO
TITLE "Knowing Me, Knowing You"
PERFORMER "Holly Wilson"
INDEX 00 16:47:53
INDEX 01 16:49:53
TRACK 06 AUDIO
TITLE "Take A Chance On Me"
PERFORMER "Holly Wilson"
INDEX 00 21:02:12
INDEX 01 21:04:12
TRACK 07 AUDIO
TITLE "Fernando"
PERFORMER "Holly Wilson"
INDEX 00 24:55:20
INDEX 01 24:57:20
TRACK 08 AUDIO
TITLE "Mamma Mia"
PERFORMER "Holly Wilson"
INDEX 00 29:36:49
INDEX 01 29:38:49
TRACK 09 AUDIO
TITLE "Chiquitita"
PERFORMER "Holly Wilson"
INDEX 00 33:43:55
INDEX 01 33:45:55
TRACK 10 AUDIO
TITLE "Honey, Honey"
PERFORMER "Holly Wilson"
INDEX 00 38:56:18
INDEX 01 38:58:18
[свернуть]

Лог проверки качества

AUDIOCHECKER v2.0 beta (build 457) - by Dester -
~~~~~~~~~~~~~~~~~~~~~~~~~~~~~~~~~~
-=== НЕ РЕДАКТИРУЙТЕ ЭТОТ ФАЙЛ! ===-

Путь: ...\2011 - ABBA En Bossa Nova by Holy Wilson [SLC 700]

1 -=- Holly Wilson - ABBA en Bossa Nova.flac -=- CDDA (100%)

127627924
[свернуть]

Спектр частот

[свернуть]

Скачать ABBA - En Bossa Nova by Holly Wilson



password: sergych
[свернуть]
My opinion of release: 10/10
__________________
TAIFUN.Wings of Soul

Вверх
3 пользователя(ей) сказали cпасибо:
Показать список поблагодаривших
  #2
Старый 31.03.2018, 16:58
gray24
Пользователь
Досье
 
Аватар для gray24
По умолчанию Re: ABBA - En Bossa Nova by Holly Wilson

Уровень диска завышен. Pink Floyd - En Bossa Nova by Holly Wilson гораздо лучше. Но, нигде не могу найти в Lossles.

Вверх
Пользователь сказал cпасибо:
sergych (01.04.2018)
  #3
Старый 31.03.2018, 18:48
TAIFUN
Admin
Досье
 
Аватар для TAIFUN
По умолчанию Re: ABBA - En Bossa Nova by Holly Wilson

Цитата: Сообщение от gray24 Посмотреть сообщение
Уровень диска завышен.

Если Вы о
Цитата:
My opinion of release 10/10

- это личная оценка релизёра.
__________________
I love the music
FAQ по форуму
Правила форума
Жизнь человека - это не самое главное в его жизни...

Вверх
Пользователь сказал cпасибо:
sergych (01.04.2018)
  #4
Старый 31.03.2018, 19:02
TAIFUN
Admin
Досье
 
Аватар для TAIFUN
По умолчанию Re: ABBA - En Bossa Nova by Holly Wilson

Цитата: Сообщение от gray24 Посмотреть сообщение
Pink Floyd - En Bossa Nova by Holly Wilson гораздо лучше. Но, нигде не могу найти в Lossles.

Кстати, на мой взгляд, намного интереснее Pink Floyd Redux (A New Music Experience)
Он есть у меня во FLAC, могу залить.
__________________
I love the music
FAQ по форуму
Правила форума
Жизнь человека - это не самое главное в его жизни...


Последний раз редактировалось TAIFUN, 31.03.2018 в 19:18.
Вверх
Пользователь сказал cпасибо:
sergych (01.04.2018)
  #5
Старый 31.03.2018, 21:50
gray24
Пользователь
Досье
 
Аватар для gray24
По умолчанию Re: ABBA - En Bossa Nova by Holly Wilson

Я имел в виду именно э тот диск Holly Wilson - Pink Floyd En Bossa Nova
А по поводу завышения, это не слова.

Вверх
Пользователь сказал cпасибо:
TAIFUN (01.04.2018)
  #6
Старый 01.04.2018, 07:41
sergych
Координатор
Досье
 
Аватар для sergych
По умолчанию Re: ABBA - En Bossa Nova by Holly Wilson

Цитата: Сообщение от TAIFUN Посмотреть сообщение
- это личная оценка релизёра

полагаю, что имелся в виду задранный диапазон записи, но это уже к к звукорежиссёру

Цитата: Сообщение от gray24 Посмотреть сообщение
Pink Floyd - En Bossa Nova by Holly Wilson

если терпежа на месяц хватит, то lossless будет и у нас
__________________
TAIFUN.Wings of Soul

Вверх
Пользователь сказал cпасибо:
TAIFUN (01.04.2018)
  #7
Старый 01.04.2018, 07:56
TAIFUN
Admin
Досье
 
Аватар для TAIFUN
По умолчанию Re: ABBA - En Bossa Nova by Holly Wilson

gray24, а, sorry. Вы имели ввиду запись.

Цитата: Сообщение от sergych Посмотреть сообщение
полагаю, что имелся в виду задранный диапазон записи, но это уже к к звукорежиссёру

Понятно.)

Цитата: Сообщение от sergych Посмотреть сообщение
если терпежа на месяц хватит, то lossless будет и у нас

Ждём-с!
__________________
I love the music
FAQ по форуму
Правила форума
Жизнь человека - это не самое главное в его жизни...

Вверх
Пользователь сказал cпасибо:
sergych (01.04.2018)
Похожие темы
Тема Автор Раздел Ответов Последнее сообщение
Альбом John Pizzarelli - Bossa Nova sergych Jazz и Blues 0 16.10.2013 19:16
Сборник Various Artists - Bossa Nova U.S.A. sergych Jazz и Blues 0 06.06.2013 09:25
VA Various Artists - Bossa Nova sergych Jazz и Blues 1 12.04.2013 12:37
Альбом Olivia Ong - A Girl Meets Bossa Nova 2 PUPOKIN Jazz и Blues 0 31.10.2009 09:13
Альбом Pink Floyd - En Bossa Nova by Holly Wilson PUPOKIN Downtempo 0 02.01.2009 11:23


Метки
2011 , abba , abba en bossa nova , bossa nova , chillout , holly wilson , pop

Опции темы

Ваши права в разделе
Вы не можете создавать новые темы
Вы не можете отвечать в темах
Вы не можете прикреплять вложения
Вы не можете редактировать свои сообщения

Быстрый переход



Текущее время: 23:58. Часовой пояс GMT +3.
Powered by vBulletin® Version 3.8.10
Copyright ©2000 - 2018, vBulletin Solutions, Inc. Перевод: zCarot
© 2008 - 2018 Taifun With Song
Яндекс.Метрика