TAIFUN With Song
Навигация
А знаете ли Вы, что...
Что значил жест «коза» до эпохи рока и металла?
«Жест «коза» существовал долгое время как магический знак для защиты от сглаза и злых духов. Ронни Джеймс Дио — солист групп Rainbow и Black Sabbath — был первым, кто показал этот жест на рок-концерте. Фанаты переняли его и теперь «коза» очень популярна среди рокеров и металлистов.»
 
Опции темы

  #1
Старый 07.05.2016, 15:48
sergych
Координатор
Досье
 
Аватар для sergych
Релиз Seal - System


2007 - Seal - System




Исполнитель/Artist: Seal
Альбом/Album: System
Год/Year: 2007
Жанр/Genre: Soul, R&B, dance-pop, electronica
Страна/Country: Европа
Рекорд-лейбл/Record label: Warner Bros.
Номер в каталоге/Catalogue #: 9362-49930-9
Формат/Format: Free Lossless Audio Codec (*.flac)
Качество/Quality: Lossless
Тип рипа/RIP Type: image+.cue
Продолжительность/Length: 00:47:35
Источник/Source: Собственный рип
Размер/Size: 400.2 MB

Сканы в комплекте

Треклист

01. If It's In My Mind, It's On My Face [0:05:10.28]
02. Amazing (Thin White Duke Edit) [0:03:27.41]
03. Just Like Before [0:04:41.64]
04. Loaded [0:05:19.65]
05. Seal with Heid / Wedding Day (Duet With Heidi) [0:03:57.24]
06. System [0:03:48.73]
07. Dumb [0:04:11.41]
08. The Right Life [0:05:09.34]
09. Rolling [0:04:31.25]
10. Immaculate [0:04:14.57]
11. Amazing [0:03:02.16]
[свернуть]

youtube.com

[свернуть]

EAC лог

Exact Audio Copy V1.1 from 23. June 2015

EAC extraction logfile from 5. May 2016, 19:34

Seal / System

Used drive : ATAPI iHAS124 D Adapter: 0 ID: 2

Read mode : Secure
Utilize accurate stream : Yes
Defeat audio cache : Yes
Make use of C2 pointers : No

Read offset correction : 6
Overread into Lead-In and Lead-Out : No
Fill up missing offset samples with silence : Yes
Delete leading and trailing silent blocks : No
Null samples used in CRC calculations : Yes
Used interface : Installed external ASPI interface

Used output format : User Defined Encoder
Selected bitrate : 1024 kBit/s
Quality : High
Add ID3 tag : Yes
Command line compressor : C:\Program Files (x86)\Exact Audio Copy\Flac\flac.exe
Additional command line options : -6 -V -T "ARTIST=%artist%" -T "TITLE=%title%" -T "ALBUM=%albumtitle%" -T "DATE=%year%" -T "TRACKNUMBER=%tracknr%" -T "GENRE=%genre%" -T "COMMENT=%comment%" -T "BAND=%albuminterpret%" -T "COMPOSER=%composer%" %haslyrics%--tag-from-file=LYRICS="%lyricsfile%"%haslyrics% -T "DISCNUMBER=%cdnumber%" -T "TOTALDISCS=%totalcds%" -T "TOTALTRACKS=%numtracks%" %hascover%--picture="%coverfile%"%hascover% %source% -o %dest%


TOC of the extracted CD

Track | Start | Length | Start sector | End sector
---------------------------------------------------------
1 | 0:00.00 | 5:10.28 | 0 | 23277
2 | 5:10.28 | 3:27.41 | 23278 | 38843
3 | 8:37.69 | 4:41.64 | 38844 | 59982
4 | 13:19.58 | 5:19.65 | 59983 | 83972
5 | 18:39.48 | 3:57.24 | 83973 | 101771
6 | 22:36.72 | 3:48.73 | 101772 | 118944
7 | 26:25.70 | 4:11.41 | 118945 | 137810
8 | 30:37.36 | 5:09.34 | 137811 | 161019
9 | 35:46.70 | 4:31.25 | 161020 | 181369
10 | 40:18.20 | 4:14.57 | 181370 | 200476
11 | 44:33.02 | 3:02.16 | 200477 | 214142


Range status and errors

Selected range

Filename C:\mm\Seal\2007 - System [9362-49930-9]\Seal - System.wav

Peak level 100.0 %
Extraction speed 8.4 X
Range quality 100.0 %
Test CRC DBF14149
Copy CRC DBF14149
Copy OK

No errors occurred


AccurateRip summary

Track 1 accurately ripped (confidence 132) [6FF80FFC] (AR v2)
Track 2 accurately ripped (confidence 133) [41187891] (AR v2)
Track 3 accurately ripped (confidence 132) [366AFBF9] (AR v2)
Track 4 accurately ripped (confidence 131) [1A3B3E60] (AR v2)
Track 5 accurately ripped (confidence 132) [7590C953] (AR v2)
Track 6 accurately ripped (confidence 133) [0273AA1E] (AR v2)
Track 7 accurately ripped (confidence 132) [CF8DE5B6] (AR v2)
Track 8 accurately ripped (confidence 131) [AF7A65BA] (AR v2)
Track 9 accurately ripped (confidence 132) [C0E8BA01] (AR v2)
Track 10 accurately ripped (confidence 131) [8F8ACE1B] (AR v2)
Track 11 accurately ripped (confidence 131) [1EFF4826] (AR v2)

All tracks accurately ripped

End of status report
[свернуть]

Файл CUE

REM GENRE Pop
REM DATE 2007
REM DISCID 8B0B270B
REM COMMENT "ExactAudioCopy v1.1"
PERFORMER "Seal"
TITLE "System"
FILE "Seal - System.flac" WAVE
TRACK 01 AUDIO
TITLE "If It's In My Mind, It's On My Face"
PERFORMER "Seal"
INDEX 01 00:00:00
TRACK 02 AUDIO
TITLE "Amazing (Thin White Duke Edit)"
PERFORMER "Seal"
INDEX 01 05:10:28
TRACK 03 AUDIO
TITLE "Just Like Before"
PERFORMER "Seal"
INDEX 00 08:37:38
INDEX 01 08:37:69
TRACK 04 AUDIO
TITLE "Loaded"
PERFORMER "Seal"
INDEX 01 13:19:58
TRACK 05 AUDIO
TITLE "Wedding Day (Duet With Heidi)"
PERFORMER "Seal with Heid"
INDEX 00 18:39:39
INDEX 01 18:39:48
TRACK 06 AUDIO
TITLE "System"
PERFORMER "Seal"
INDEX 01 22:36:72
TRACK 07 AUDIO
TITLE "Dumb"
PERFORMER "Seal"
INDEX 00 26:25:14
INDEX 01 26:25:70
TRACK 08 AUDIO
TITLE "The Right Life"
PERFORMER "Seal"
INDEX 01 30:37:36
TRACK 09 AUDIO
TITLE "Rolling"
PERFORMER "Seal"
INDEX 01 35:46:70
TRACK 10 AUDIO
TITLE "Immaculate"
PERFORMER "Seal"
INDEX 00 40:17:13
INDEX 01 40:18:20
TRACK 11 AUDIO
TITLE "Amazing"
PERFORMER "Seal"
INDEX 00 44:23:06
INDEX 01 44:33:02
[свернуть]

Лог проверки качества

AUDIOCHECKER v2.0 beta (build 457) - by Dester -
~~~~~~~~~~~~~~~~~~~~~~~~~~~~~~~~~~
-=== НЕ РЕДАКТИРУЙТЕ ЭТОТ ФАЙЛ! ===-

Путь: ...\2007 - System [9362-49930-9]

1 -=- Seal - System.flac -=- CDDA (100%)

68717620
[свернуть]

Спектр частот

[свернуть]

Скачать Seal - System



password: sergych
[свернуть]
My opinion of release: 10/10
__________________
TAIFUN.Wings of Soul


Последний раз редактировалось sergych, 11.05.2018 в 08:32. Причина: Сменил ссылку из-за личеров
Вверх
Похожие темы
Тема Автор Раздел Ответов Последнее сообщение
Альбом Seal - Soul 2 sergych R&B 0 04.05.2016 23:32
Релиз Seal - 6: Commitment PUPOKIN R&B 0 18.09.2010 08:53
Сборник Seal - Hits PUPOKIN R&B 0 26.11.2009 09:31
Seal sergych R&B [FAQ] 0 13.06.2008 18:12


Метки
2007 , dance-pop , electronica , r&b , seal , soul , system

Опции темы

Ваши права в разделе
Вы не можете создавать новые темы
Вы не можете отвечать в темах
Вы не можете прикреплять вложения
Вы не можете редактировать свои сообщения

Быстрый переход



Текущее время: 02:39. Часовой пояс GMT +3.
Powered by vBulletin® Version 3.8.10
Copyright ©2000 - 2018, vBulletin Solutions, Inc. Перевод: zCarot
© 2008 - 2018 Taifun With Song
Яндекс.Метрика