TAIFUN With Song
Навигация
А знаете ли Вы, что...
В каком стиле играет группа, вокалистом которой является попугай?
«Единственная в мире группа, вокалистом которой является птица — попугай по кличке Вальдо, играет в стиле дэт-метал и называется Hatebeak. К настоящему времени группа выпустила три альбома, однако проект существует только в студии и концертов не даёт. Второй альбом Hatebeak записали с дэтграйнд-коллективом Caninus, в котором солировали два питбультерьера.»
 
Опции темы

  #1
Старый 03.12.2013, 20:18
sergych
Координатор
Досье
 
Аватар для sergych
Релиз Annie Lennox - Bare


2003 - Annie Lennox - Bare




Исполнитель/Artist: Annie Lennox
Альбом/Album: Bare
Год/Year: 2003
Жанр/Genre: Pop, Synthpop, Adult contemporary, Pop Rock
Страна/Country: Соединённые Штаты
Рекорд-лейбл/Record label: J Records
Номер в каталоге/Catalogue #: 8287652350-2
Формат/Format: Free Lossless Audio Codec (*.flac)
Качество/Quality: Lossless
Тип рипа/RIP Type: image+.cue
Продолжительность/Length: 00:49:01
Источник/Source: Собственный рип
Размер/Size: 356.7 MB

Сканы в комплекте

Треклист

01. A Thousand Beautiful Things [0:03:07.31]
02. Pavement Cracks [0:05:10.00]
03. The Hurting Time [0:07:32.07]
04. Honestly [0:05:01.23]
05. Wonderful [0:04:16.61]
06. Bitter Pill [0:04:00.51]
07. Loneliness [0:04:01.05]
08. The Saddest Song I've Got [0:04:08.60]
09. Erased [0:04:40.04]
10. Twisted [0:04:12.20]
11. Oh God (Prayer) [0:02:51.04]
[свернуть]

youtube.com

[свернуть]

EAC лог

Exact Audio Copy V1.0 beta 3 from 29. August 2011

EAC extraction logfile from 3. December 2013, 23:22

Annie Lennox / Bare

Used drive : ATAPI iHAS124 D Adapter: 0 ID: 2

Read mode : Secure
Utilize accurate stream : Yes
Defeat audio cache : Yes
Make use of C2 pointers : Yes

Read offset correction : 6
Overread into Lead-In and Lead-Out : No
Fill up missing offset samples with silence : Yes
Delete leading and trailing silent blocks : No
Null samples used in CRC calculations : Yes
Used interface : Installed external ASPI interface

Used output format : User Defined Encoder
Selected bitrate : 1024 kBit/s
Quality : High
Add ID3 tag : No
Command line compressor : C:\Program Files (x86)\Exact Audio Copy\Flac\flac.exe
Additional command line options : -6 -V -T "ARTIST=%artist%" -T "TITLE=%title%" -T "ALBUM=%albumtitle%" -T "DATE=%year%" -T "TRACKNUMBER=%tracknr%" -T "GENRE=%genre%" -T "COMMENT=%comment%" -T "BAND=%albuminterpret%" -T "COMPOSER=%composer%" %haslyrics%--tag-from-file=LYRICS="%lyricsfile%"%haslyrics% -T "DISCNUMBER=%cdnumber%" -T "TOTALDISCS=%totalcds%" -T "TOTALTRACKS=%numtracks%" %hascover%--picture="%coverfile%"%hascover% %source% -o %dest%


TOC of the extracted CD

Track | Start | Length | Start sector | End sector
---------------------------------------------------------
1 | 0:00.00 | 3:07.31 | 0 | 14055
2 | 3:07.31 | 5:10.00 | 14056 | 37305
3 | 8:17.31 | 7:32.07 | 37306 | 71212
4 | 15:49.38 | 5:01.23 | 71213 | 93810
5 | 20:50.61 | 4:16.61 | 93811 | 113071
6 | 25:07.47 | 4:00.51 | 113072 | 131122
7 | 29:08.23 | 4:01.05 | 131123 | 149202
8 | 33:09.28 | 4:08.60 | 149203 | 167862
9 | 37:18.13 | 4:40.04 | 167863 | 188866
10 | 41:58.17 | 4:12.20 | 188867 | 207786
11 | 46:10.37 | 2:51.04 | 207787 | 220615


Range status and errors

Selected range

Filename C:\mm\Annie Lennox\2003 - Bare [8287652350-2]\Annie Lennox - Bare.wav

Peak level 99.5 %
Extraction speed 12.7 X
Range quality 100.0 %
Test CRC B7FB4398
Copy CRC B7FB4398
Copy OK

No errors occurred


AccurateRip summary

Track 1 accurately ripped (confidence 53) [2AC04D2D] (AR v2)
Track 2 accurately ripped (confidence 54) [D6ABD207] (AR v2)
Track 3 accurately ripped (confidence 54) [004073B9] (AR v2)
Track 4 accurately ripped (confidence 54) [2444288D] (AR v2)
Track 5 accurately ripped (confidence 54) [092E4358] (AR v2)
Track 6 accurately ripped (confidence 54) [C61320E1] (AR v2)
Track 7 accurately ripped (confidence 54) [35D93546] (AR v2)
Track 8 accurately ripped (confidence 54) [64B0FD88] (AR v2)
Track 9 accurately ripped (confidence 53) [1E482165] (AR v2)
Track 10 accurately ripped (confidence 54) [F6F3F573] (AR v2)
Track 11 accurately ripped (confidence 54) [7F262DC8] (AR v2)

All tracks accurately ripped

End of status report

---- CUETools DB Plugin V2.1.3

[CTDB TOCID: ZtF08ZDZ3FUhWErfZZecCr1k65s-] found, Submit result: ZtF08ZDZ3FUhWErfZZecCr1k65s- has been confirmed
[c5b15ae9] (154/154) Accurately ripped
[свернуть]

Файл CUE

REM DATE 2003
REM DISCID 960B7D0B
REM COMMENT "ExactAudioCopy v1.0b3"
PERFORMER "Annie Lennox"
TITLE "Bare"
FILE "Annie Lennox - Bare.flac" WAVE
TRACK 01 AUDIO
TITLE "A Thousand Beautiful Things"
PERFORMER "Annie Lennox"
INDEX 01 00:00:00
TRACK 02 AUDIO
TITLE "Pavement Cracks"
PERFORMER "Annie Lennox"
INDEX 01 03:07:31
TRACK 03 AUDIO
TITLE "The Hurting Time"
PERFORMER "Annie Lennox"
INDEX 00 08:16:67
INDEX 01 08:17:31
TRACK 04 AUDIO
TITLE "Honestly"
PERFORMER "Annie Lennox"
INDEX 01 15:49:38
TRACK 05 AUDIO
TITLE "Wonderful"
PERFORMER "Annie Lennox"
INDEX 01 20:50:61
TRACK 06 AUDIO
TITLE "Bitter Pill"
PERFORMER "Annie Lennox"
INDEX 00 25:07:26
INDEX 01 25:07:47
TRACK 07 AUDIO
TITLE "Loneliness"
PERFORMER "Annie Lennox"
INDEX 01 29:08:23
TRACK 08 AUDIO
TITLE "The Saddest Song I've Got"
PERFORMER "Annie Lennox"
INDEX 01 33:09:28
TRACK 09 AUDIO
TITLE "Erased"
PERFORMER "Annie Lennox"
INDEX 00 37:16:52
INDEX 01 37:18:13
TRACK 10 AUDIO
TITLE "Twisted"
PERFORMER "Annie Lennox"
INDEX 01 41:58:17
TRACK 11 AUDIO
TITLE "Oh God (Prayer)"
PERFORMER "Annie Lennox"
INDEX 00 46:08:32
INDEX 01 46:10:37
[свернуть]

Лог проверки качества

AUDIOCHECKER v2.0 beta (build 457) - by Dester -
~~~~~~~~~~~~~~~~~~~~~~~~~~~~~~~~~~
-=== НЕ РЕДАКТИРУЙТЕ ЭТОТ ФАЙЛ! ===-

Путь: ...\2003 - Bare [8287652350-2]

1 -=- Annie Lennox - Bare.flac -=- CDDA (100%)

126022228
[свернуть]

Спектр частот

[свернуть]

Скачать Annie Lennox - Bare



password: sergych
[свернуть]
My opinion of release: 10/10
__________________
TAIFUN.Wings of Soul


Последний раз редактировалось sergych, 13.12.2014 в 18:46. Причина: перезаливка
Вверх
Похожие темы
Тема Автор Раздел Ответов Последнее сообщение
Альбом Annie Lennox - Diva sergych Зарубежная Поп-Музыка 1 28.12.2013 15:52
VA Annie Mac Presents 2011 PUPOKIN Dance 0 31.10.2011 08:44
Релиз 50 Cent and DJ Lennox - Return Of The Boom Bap PUPOKIN Зарубежный 0 17.06.2011 09:23


Метки
2003 , adult contemporary , annie lennox , bare , pop , pop rock , synthpop

Опции темы

Ваши права в разделе
Вы не можете создавать новые темы
Вы не можете отвечать в темах
Вы не можете прикреплять вложения
Вы не можете редактировать свои сообщения

Быстрый переход



Текущее время: 17:46. Часовой пояс GMT +3.
Powered by vBulletin® Version 3.8.10
Copyright ©2000 - 2018, vBulletin Solutions, Inc. Перевод: zCarot
© 2008 - 2018 Taifun With Song
Яндекс.Метрика