TAIFUN With Song
Навигация
А знаете ли Вы, что...
Как реагировала Монсеррат Кабалье, если кто-либо из зрителей записывал концерт на магнитофон?
«Монсеррат Кабалье иногда на своих концертах прибегала к следующей шутке. Если кто-либо из зрителей записывал концерт на магнитофон, и в какой-то момент ему надо было перевернуть кассету, Кабалье прекращала петь. Помолчав несколько секунд, она говорила: «Кивните мне, когда можно будет продолжать».»
 
Опции темы

  #1
Старый 03.12.2013, 18:30
sergych
Координатор
Досье
 
Аватар для sergych
Релиз Annie Lennox - Diva


1992 - Annie Lennox - Diva




Исполнитель/Artist: Annie Lennox
Альбом/Album: Diva
Год/Year: 1992
Жанр/Genre: Pop, Adult contemporary, Alternative Rock, Funk Rock
Страна/Country: Соединённые Штаты
Рекорд-лейбл/Record label: Arista
Номер в каталоге/Catalogue #: 07822-18704-2
Формат/Format: Free Lossless Audio Codec (*.flac)
Качество/Quality: Lossless
Тип рипа/RIP Type: image+.cue
Продолжительность/Length: 00:50:02
Источник/Source: Собственный рип
Размер/Size: 343.4 MB

Сканы в комплекте

Треклист

01 - Why (Annie Lennox, Peter-John Vettese)
02 - Walking On Broken Glass (Annie Lennox)
03 - Precious (Annie Lennox)
04 - Legend In My Living Room (Annie Lennox, Peter-John Vettese)
05 - Cold (Annie Lennox)
06 - Money Can't Buy It (Annie Lennox)
07 - Little Bird (Annie Lennox)
08 - Primitive (Annie Lennox)
09 - Stay By Me (Annie Lennox)
10 - The Gift (Robert Bell, Paul Buchanan, Annie Lennox, Paul Joseph Moore)

Bonus track:
11 - Keep Young and Beautiful (Al Dubin, Harry Warren)
[свернуть]

youtube.com

[свернуть]

Исполнители/Performers

Annie Lennox – keyboards, vocals
Paul Joseph Moore – keyboards
Marius de Vries – keyboards, programming
Peter-John Vettese – keyboards, programming, recorder
Edward Shearmur – piano
Kenji Jammer – guitar, programming
Steve Lipson – guitar, keyboards, programming, producer
Doug Wimbish – bass
Gavyn Wright - violin
Dave Defries – trumpet
Keith LeBlanc – drums
Louis Jardim – percussion
Steve Jansen – drum programming
[свернуть]

EAC лог

Exact Audio Copy V1.0 beta 3 from 29. August 2011

EAC extraction logfile from 3. December 2013, 21:07

Annie Lennox / Diva

Used drive : ATAPI iHAS124 D Adapter: 0 ID: 2

Read mode : Secure
Utilize accurate stream : Yes
Defeat audio cache : Yes
Make use of C2 pointers : Yes

Read offset correction : 6
Overread into Lead-In and Lead-Out : No
Fill up missing offset samples with silence : Yes
Delete leading and trailing silent blocks : No
Null samples used in CRC calculations : Yes
Used interface : Installed external ASPI interface

Used output format : User Defined Encoder
Selected bitrate : 1024 kBit/s
Quality : High
Add ID3 tag : No
Command line compressor : C:\Program Files (x86)\Exact Audio Copy\Flac\flac.exe
Additional command line options : -6 -V -T "ARTIST=%artist%" -T "TITLE=%title%" -T "ALBUM=%albumtitle%" -T "DATE=%year%" -T "TRACKNUMBER=%tracknr%" -T "GENRE=%genre%" -T "COMMENT=%comment%" -T "BAND=%albuminterpret%" -T "COMPOSER=%composer%" %haslyrics%--tag-from-file=LYRICS="%lyricsfile%"%haslyrics% -T "DISCNUMBER=%cdnumber%" -T "TOTALDISCS=%totalcds%" -T "TOTALTRACKS=%numtracks%" %hascover%--picture="%coverfile%"%hascover% %source% -o %dest%


TOC of the extracted CD

Track | Start | Length | Start sector | End sector
---------------------------------------------------------
1 | 0:00.00 | 4:53.67 | 0 | 22041
2 | 4:53.67 | 4:13.18 | 22042 | 41034
3 | 9:07.10 | 5:08.35 | 41035 | 64169
4 | 14:15.45 | 3:45.50 | 64170 | 81094
5 | 18:01.20 | 4:21.52 | 81095 | 100721
6 | 22:22.72 | 5:00.00 | 100722 | 123221
7 | 27:22.72 | 4:39.15 | 123222 | 144161
8 | 32:02.12 | 4:19.28 | 144162 | 163614
9 | 36:21.40 | 6:28.57 | 163615 | 192771
10 | 42:50.22 | 4:54.38 | 192772 | 214859
11 | 47:44.60 | 2:17.47 | 214860 | 225181


Range status and errors

Selected range

Filename C:\mm\Annie Lennox\1992 - Diva [07822-18704-2]\Annie Lennox - Diva.wav

Peak level 99.2 %
Extraction speed 4.7 X
Range quality 100.0 %
Test CRC 0BB5B246
Copy CRC 0BB5B246
Copy OK

No errors occurred


AccurateRip summary

Track 1 accurately ripped (confidence 29) [6AD102C0] (AR v2)
Track 2 accurately ripped (confidence 30) [A1B51450] (AR v2)
Track 3 accurately ripped (confidence 29) [C52D7534] (AR v2)
Track 4 accurately ripped (confidence 30) [9A9E9BA7] (AR v2)
Track 5 accurately ripped (confidence 30) [20F89BBE] (AR v2)
Track 6 accurately ripped (confidence 30) [CBC0D940] (AR v2)
Track 7 accurately ripped (confidence 30) [1CD2D2B5] (AR v2)
Track 8 accurately ripped (confidence 30) [E29A6AEF] (AR v2)
Track 9 accurately ripped (confidence 30) [0EEA5EFA] (AR v2)
Track 10 accurately ripped (confidence 31) [3C7A1F52] (AR v2)
Track 11 accurately ripped (confidence 30) [5059A2BA] (AR v2)

All tracks accurately ripped

End of status report

---- CUETools DB Plugin V2.1.3

[CTDB TOCID: 6KfQm0R.PgAGUwcSJH8lyPrW5NE-] found, Submit result: 6KfQm0R.PgAGUwcSJH8lyPrW5NE- has been confirmed
[b765f352] (28/28) Accurately ripped
[свернуть]

Файл CUE

REM DATE 1992
REM DISCID A30BBA0B
REM COMMENT "ExactAudioCopy v1.0b3"
PERFORMER "Annie Lennox"
TITLE "Diva"
FILE "Annie Lennox - Diva.flac" WAVE
TRACK 01 AUDIO
TITLE "Why"
PERFORMER "Annie Lennox"
INDEX 01 00:00:00
TRACK 02 AUDIO
TITLE "Walking on Broken Glass"
PERFORMER "Annie Lennox"
INDEX 01 04:53:67
TRACK 03 AUDIO
TITLE "Precious"
PERFORMER "Annie Lennox"
INDEX 01 09:07:10
TRACK 04 AUDIO
TITLE "Legend in My Living Room"
PERFORMER "Annie Lennox"
INDEX 01 14:15:45
TRACK 05 AUDIO
TITLE "Cold"
PERFORMER "Annie Lennox"
INDEX 01 18:01:20
TRACK 06 AUDIO
TITLE "Money Can't Buy It"
PERFORMER "Annie Lennox"
INDEX 01 22:22:72
TRACK 07 AUDIO
TITLE "Little Bird"
PERFORMER "Annie Lennox"
INDEX 01 27:22:72
TRACK 08 AUDIO
TITLE "Primitive"
PERFORMER "Annie Lennox"
INDEX 00 32:00:50
INDEX 01 32:02:12
TRACK 09 AUDIO
TITLE "Stay by Me"
PERFORMER "Annie Lennox"
INDEX 00 36:19:60
INDEX 01 36:21:40
TRACK 10 AUDIO
TITLE "The Gift"
PERFORMER "Annie Lennox"
INDEX 01 42:50:22
TRACK 11 AUDIO
TITLE "Keep Young and Beautiful"
PERFORMER "Annie Lennox"
INDEX 00 47:43:45
INDEX 01 47:44:60
[свернуть]

Лог проверки качества

AUDIOCHECKER v2.0 beta (build 457) - by Dester -
~~~~~~~~~~~~~~~~~~~~~~~~~~~~~~~~~~
-=== НЕ РЕДАКТИРУЙТЕ ЭТОТ ФАЙЛ! ===-

Путь: ...\1992 - Diva [07822-18704-2]

1 -=- Annie Lennox - Diva.flac -=- MPEG (95%)

57018660
[свернуть]

Спектр частот

[свернуть]

Скачать Annie Lennox - Diva



password: sergych
[свернуть]
My opinion of release: 10/10
__________________
TAIFUN.Wings of Soul

Вверх
  #2
Старый 28.12.2013, 15:52
sergych
Координатор
Досье
 
Аватар для sergych
Релиз 1992(2007) - Diva


1992(2007) - Diva




Исполнитель/Artist: Annie Lennox
Альбом/Album: Diva
Год/Year: 1992
Ремастеринг/Remastered: 2007
Жанр/Genre: Pop, Adult contemporary, Alternative Rock, Funk Rock
Страна/Country: Япония
Рекорд-лейбл/Record label: BMG Japan
Номер в каталоге/Catalogue #: BVCM-37918
Формат/Format: Free Lossless Audio Codec (*.flac)
Качество/Quality: Lossless
Тип рипа/RIP Type: image+.cue
Продолжительность/Length: 00:55:17
Источник/Source: Из интернета
Размер/Size: 367 MB

Сканы в комплекте

Треклист

01 - Why (Annie Lennox, Peter-John Vettese)
02 - Walking On Broken Glass (Annie Lennox)
03 - Precious (Annie Lennox)
04 - Legend In My Living Room (Annie Lennox, Peter-John Vettese)
05 - Cold (Annie Lennox)
06 - Money Can't Buy It (Annie Lennox)
07 - Little Bird (Annie Lennox)
08 - Primitive (Annie Lennox)
09 - Stay By Me (Annie Lennox)
10 - The Gift (Robert Bell, Paul Buchanan, Annie Lennox, Paul Joseph Moore)

Bonus track:
11 - Keep Young and Beautiful (Al Dubin, Harry Warren)
12 - Step By Step (Annie Lennox)
[свернуть]

youtube.com

[свернуть]

Исполнители/Performers

Annie Lennox – keyboards, vocals
Paul Joseph Moore – keyboards
Marius de Vries – keyboards, programming
Peter-John Vettese – keyboards, programming, recorder
Edward Shearmur – piano
Kenji Jammer – guitar, programming
Steve Lipson – guitar, keyboards, programming, producer
Doug Wimbish – bass
Gavyn Wright - violin
Dave Defries – trumpet
Keith LeBlanc – drums
Louis Jardim – percussion
Steve Jansen – drum programming
[свернуть]

EAC лог

Exact Audio Copy V0.99 prebeta 5 from 4. May 2009

EAC extraction logfile from 26. June 2009, 1:08

Annie Lennox / Diva

Used drive : ASUS DRW-1608P Adapter: 2 ID: 0

Read mode : Secure
Utilize accurate stream : Yes
Defeat audio cache : Yes
Make use of C2 pointers : No

Read offset correction : 48
Overread into Lead-In and Lead-Out : No
Fill up missing offset samples with silence : Yes
Delete leading and trailing silent blocks : No
Null samples used in CRC calculations : Yes
Used interface : Native Win32 interface for Win NT & 2000

Used output format : User Defined Encoder
Selected bitrate : 1024 kBit/s
Quality : High
Add ID3 tag : No
Command line compressor : C:\Program Files (x86)\FLAC\flac.exe
Additional command line options : -5 -V -T "ARTIST=%a" -T "TITLE=%t" -T "ALBUM=%g" -T "DATE=%y" -T "TRACKNUMBER=%n" -T "GENRE=%m" -T "COMMENT=EAC FLAC -5" %s


TOC of the extracted CD

Track | Start | Length | Start sector | End sector
---------------------------------------------------------
1 | 0:00.00 | 4:54.18 | 0 | 22067
2 | 4:54.18 | 4:13.32 | 22068 | 41074
3 | 9:07.50 | 5:08.53 | 41075 | 64227
4 | 14:16.28 | 3:45.47 | 64228 | 81149
5 | 18:02.00 | 4:23.73 | 81150 | 100947
6 | 22:25.73 | 4:59.72 | 100948 | 123444
7 | 27:25.70 | 4:52.55 | 123445 | 145399
8 | 32:18.50 | 4:19.25 | 145400 | 164849
9 | 36:38.00 | 6:28.73 | 164850 | 194022
10 | 43:06.73 | 5:01.35 | 194023 | 216632
11 | 48:08.33 | 2:19.10 | 216633 | 227067
12 | 50:27.43 | 4:49.62 | 227068 | 248804


Range status and errors

Selected range

Filename F:\Annie Lennox [Japan]\Diva - 1992\Annie Lennox - Diva.wav

Peak level 97.2 %
Range quality 100.0 %
Test CRC 6D463326
Copy CRC 6D463326
Copy OK

No errors occurred


AccurateRip summary

Track 1 not present in database
Track 2 not present in database
Track 3 not present in database
Track 4 not present in database
Track 5 not present in database
Track 6 not present in database
Track 7 not present in database
Track 8 not present in database
Track 9 not present in database
Track 10 not present in database
Track 11 not present in database
Track 12 not present in database

None of the tracks are present in the AccurateRip database

End of status report
[свернуть]

Файл CUE

REM DATE 1992
REM DISCID B20CF50C
REM COMMENT "ExactAudioCopy v0.99pb5"
PERFORMER "Annie Lennox"
TITLE "Diva"
FILE "Annie Lennox - Diva.flac" WAVE
TRACK 01 AUDIO
TITLE "Why"
PERFORMER "Annie Lennox"
INDEX 01 00:00:00
TRACK 02 AUDIO
TITLE "Walking On Broken Glass"
PERFORMER "Annie Lennox"
INDEX 01 04:54:18
TRACK 03 AUDIO
TITLE "Precious"
PERFORMER "Annie Lennox"
INDEX 01 09:07:50
TRACK 04 AUDIO
TITLE "Legend In My Living Room"
PERFORMER "Annie Lennox"
INDEX 01 14:16:28
TRACK 05 AUDIO
TITLE "Cold"
PERFORMER "Annie Lennox"
INDEX 01 18:02:00
TRACK 06 AUDIO
TITLE "Money Can't Buy It"
PERFORMER "Annie Lennox"
INDEX 00 22:24:04
INDEX 01 22:25:73
TRACK 07 AUDIO
TITLE "Little Bird"
PERFORMER "Annie Lennox"
INDEX 00 27:23:71
INDEX 01 27:25:70
TRACK 08 AUDIO
TITLE "Primitive"
PERFORMER "Annie Lennox"
INDEX 00 32:15:49
INDEX 01 32:18:50
TRACK 09 AUDIO
TITLE "Stay By Me"
PERFORMER "Annie Lennox"
INDEX 01 36:38:00
TRACK 10 AUDIO
TITLE "The Gift"
PERFORMER "Annie Lennox"
INDEX 01 43:06:73
TRACK 11 AUDIO
TITLE "Keep Young And Beautiful"
PERFORMER "Annie Lennox"
INDEX 00 47:59:59
INDEX 01 48:08:33
TRACK 12 AUDIO
TITLE "Step By Step"
PERFORMER "Annie Lennox"
INDEX 00 50:25:29
INDEX 01 50:27:43
[свернуть]

Лог проверки качества

AUDIOCHECKER v2.0 beta (build 457) - by Dester -
~~~~~~~~~~~~~~~~~~~~~~~~~~~~~~~~~~
-=== НЕ РЕДАКТИРУЙТЕ ЭТОТ ФАЙЛ! ===-

Путь: ...\1992 - Diva [Japan] [BVCM-37918]

1 -=- Annie Lennox - Diva.flac -=- CDDA (100%)

117387892
[свернуть]

Спектр частот

[свернуть]

Скачать Annie Lennox - Diva



password: sergych
[свернуть]
My opinion of release: 10/10
__________________
TAIFUN.Wings of Soul

Вверх
Похожие темы
Тема Автор Раздел Ответов Последнее сообщение
Релиз Diva Dompe - Moon Moods PUPOKIN Зарубежная Поп-Музыка 0 09.10.2012 08:53
Сборник Disco Diva Delights Vol. 1 PUPOKIN Disco 0 17.11.2009 08:59


Метки
1992 , adult contemporary , alternative rock , annie lennox , diva , funk rock , pop

Опции темы

Ваши права в разделе
Вы не можете создавать новые темы
Вы не можете отвечать в темах
Вы не можете прикреплять вложения
Вы не можете редактировать свои сообщения

Быстрый переход



Текущее время: 06:14. Часовой пояс GMT +3.
Powered by vBulletin® Version 3.8.10
Copyright ©2000 - 2018, vBulletin Solutions, Inc. Перевод: zCarot
© 2008 - 2018 Taifun With Song
Яндекс.Метрика