TAIFUN With Song
Навигация
Вернуться   TAIFUN With Song > Music (обменник) > POP > Зарубежная Поп-Музыка
Расширенный поиск
А знаете ли Вы, что...
Когда и у кого отобрали ранее врученную музыкальную премию Грэмми?
«В 1987 году продюсер Boney M задумал новый проект под названием Milli Vanilli. Однако внешность основных исполнителей оказалась не соответствующей ожиданиям молодёжной аудитории, и так получилось, что лицом группы стали два танцора, всегда поющие «под фанеру». Вскоре группа обрела сверхпопулярность по всему миру, но длилось это недолго, и музыканты были разоблачены. Компания-производитель дисков стала возвращать всем желающим деньги за альбом, а у дуэта отобрали ранее врученную премию Грэмми — единственный случай в истории этой музыкальной награды.»
 
Опции темы

  #1
Старый 11.11.2013, 15:05
sergych
Координатор
Досье
 
Аватар для sergych
Релиз Michael Bolton - Greatest Hits. Steel Box Collection


2009 - Michael Bolton - Greatest Hits. Steel Box Collection




Исполнитель/Artist: Michael Bolton
Альбом/Album: Greatest Hits. Steel Box Collection
Год/Year: 2009
Жанр/Genre: Pop, Pop Rock, Soft Rock, Soul
Страна/Country: Европа
Рекорд-лейбл/Record label: Sony
Номер в каталоге/Catalogue #: 88697458652
Формат/Format: Free Lossless Audio Codec (*.flac)
Качество/Quality: Lossless
Тип рипа/RIP Type: tracks+.cue
Продолжительность/Length: 00:45:13
Источник/Source: Собственный рип
Размер/Size: 380.7 MB

Сканы в комплекте

Треклист

01 - Said I Love You...But I Lied
02 - That's What Love Is All About
03 - When A Man Loves A Woman
04 - My Girl
05 - (Sittin' On) The Dock Of The Bay
06 - Once In A Lifetime
07 - Time, Love And Tenderness
08 - Whiter Shade Of Pale
09 - Drift Away
10 - How Am I Supposed To Live Without You
[свернуть]

youtube.com

[свернуть]

EAC лог

Exact Audio Copy V1.0 beta 3 from 29. August 2011

EAC extraction logfile from 11. November 2013, 18:15

Michael Bolton / Greatest Hits. Steel Box Collection

Used drive : ATAPI iHAS124 D Adapter: 0 ID: 2

Read mode : Secure
Utilize accurate stream : Yes
Defeat audio cache : Yes
Make use of C2 pointers : No

Read offset correction : 6
Overread into Lead-In and Lead-Out : No
Fill up missing offset samples with silence : Yes
Delete leading and trailing silent blocks : No
Null samples used in CRC calculations : Yes
Used interface : Installed external ASPI interface
Gap handling : Appended to previous track

Used output format : User Defined Encoder
Selected bitrate : 1024 kBit/s
Quality : High
Add ID3 tag : No
Command line compressor : C:\Program Files (x86)\Exact Audio Copy\Flac\flac.exe
Additional command line options : -6 -V -T "ARTIST=%artist%" -T "TITLE=%title%" -T "ALBUM=%albumtitle%" -T "DATE=%year%" -T "TRACKNUMBER=%tracknr%" -T "GENRE=%genre%" -T "COMMENT=%comment%" -T "BAND=%albuminterpret%" -T "COMPOSER=%composer%" %haslyrics%--tag-from-file=LYRICS="%lyricsfile%"%haslyrics% -T "DISCNUMBER=%cdnumber%" -T "TOTALDISCS=%totalcds%" -T "TOTALTRACKS=%numtracks%" %hascover%--picture="%coverfile%"%hascover% %source% -o %dest%


TOC of the extracted CD

Track | Start | Length | Start sector | End sector
---------------------------------------------------------
1 | 0:00.00 | 5:01.31 | 0 | 22605
2 | 5:01.31 | 3:58.74 | 22606 | 40529
3 | 9:00.30 | 3:53.21 | 40530 | 58025
4 | 12:53.51 | 3:23.02 | 58026 | 73252
5 | 16:16.53 | 3:53.29 | 73253 | 90756
6 | 20:10.07 | 5:55.46 | 90757 | 117427
7 | 26:05.53 | 4:19.17 | 117428 | 136869
8 | 30:24.70 | 4:44.68 | 136870 | 158237
9 | 35:09.63 | 6:07.45 | 158238 | 185807
10 | 41:17.33 | 4:13.65 | 185808 | 204847


Track 1

Filename C:\mm\Michael Bolton\2009 - Greatest Hits. Steel Box Collection [88697458652]\01 - Said I Love You...But I Lied.wav

Pre-gap length 0:00:02.00

Peak level 77.6 %
Extraction speed 4.8 X
Track quality 99.9 %
Test CRC 5A004C53
Copy CRC 5A004C53
Accurately ripped (confidence 3) [B823BE00] (AR v1)
Copy OK

Track 2

Filename C:\mm\Michael Bolton\2009 - Greatest Hits. Steel Box Collection [88697458652]\02 - That's What Love Is All About.wav

Pre-gap length 0:00:02.00

Peak level 100.0 %
Extraction speed 6.0 X
Track quality 100.0 %
Test CRC 6175D2E1
Copy CRC 6175D2E1
Accurately ripped (confidence 3) [6FEF001F] (AR v1)
Copy OK

Track 3

Filename C:\mm\Michael Bolton\2009 - Greatest Hits. Steel Box Collection [88697458652]\03 - When A Man Loves A Woman.wav

Pre-gap length 0:00:02.00

Peak level 96.6 %
Extraction speed 6.5 X
Track quality 100.0 %
Test CRC 1F1FDC6F
Copy CRC 1F1FDC6F
Accurately ripped (confidence 3) [CD7207D9] (AR v1)
Copy OK

Track 4

Filename C:\mm\Michael Bolton\2009 - Greatest Hits. Steel Box Collection [88697458652]\04 - My Girl.wav

Pre-gap length 0:00:02.00

Peak level 64.4 %
Extraction speed 6.8 X
Track quality 100.0 %
Test CRC A725A717
Copy CRC A725A717
Accurately ripped (confidence 3) [895D5451] (AR v1)
Copy OK

Track 5

Filename C:\mm\Michael Bolton\2009 - Greatest Hits. Steel Box Collection [88697458652]\05 - (Sittin' On) The Dock Of The Bay.wav

Pre-gap length 0:00:02.00

Peak level 63.0 %
Extraction speed 6.2 X
Track quality 99.9 %
Test CRC F50732F9
Copy CRC F50732F9
Accurately ripped (confidence 3) [27FE0976] (AR v1)
Copy OK

Track 6

Filename C:\mm\Michael Bolton\2009 - Greatest Hits. Steel Box Collection [88697458652]\06 - Once In A Lifetime.wav

Pre-gap length 0:00:02.00

Peak level 100.0 %
Extraction speed 8.2 X
Track quality 100.0 %
Test CRC 95E0E86E
Copy CRC 95E0E86E
Accurately ripped (confidence 3) [98C8599F] (AR v1)
Copy OK

Track 7

Filename C:\mm\Michael Bolton\2009 - Greatest Hits. Steel Box Collection [88697458652]\07 - Time, Love And Tenderness.wav

Pre-gap length 0:00:02.00

Peak level 63.8 %
Extraction speed 8.5 X
Track quality 100.0 %
Test CRC C79D56A9
Copy CRC C79D56A9
Accurately ripped (confidence 3) [FC945707] (AR v1)
Copy OK

Track 8

Filename C:\mm\Michael Bolton\2009 - Greatest Hits. Steel Box Collection [88697458652]\08 - Whiter Shade Of Pale.wav

Pre-gap length 0:00:02.00

Peak level 60.8 %
Extraction speed 9.0 X
Track quality 100.0 %
Test CRC 0E756346
Copy CRC 0E756346
Accurately ripped (confidence 3) [F6BCA010] (AR v1)
Copy OK

Track 9

Filename C:\mm\Michael Bolton\2009 - Greatest Hits. Steel Box Collection [88697458652]\09 - Drift Away.wav

Pre-gap length 0:00:02.00

Peak level 94.5 %
Extraction speed 9.7 X
Track quality 100.0 %
Test CRC 2CE581C4
Copy CRC 2CE581C4
Accurately ripped (confidence 3) [5A68B673] (AR v1)
Copy OK

Track 10

Filename C:\mm\Michael Bolton\2009 - Greatest Hits. Steel Box Collection [88697458652]\10 - How Am I Supposed To Live Without You.wav

Pre-gap length 0:00:02.00

Peak level 67.6 %
Extraction speed 9.7 X
Track quality 100.0 %
Test CRC 96EF5CA9
Copy CRC 96EF5CA9
Accurately ripped (confidence 3) [785491B0] (AR v1)
Copy OK


All tracks accurately ripped

No errors occurred

End of status report

---- CUETools DB Plugin V2.1.3

[CTDB TOCID: 1BmBVN.fHrjaT.eq6Y4QnoANeaU-] found, Submit result: 1BmBVN.fHrjaT.eq6Y4QnoANeaU- has been confirmed
[082f9194] (2/2) Accurately ripped
[свернуть]

Файл CUE

REM GENRE Ballad
REM DATE 2009
REM DISCID 830AAB0A
REM COMMENT "ExactAudioCopy v1.0b3"
PERFORMER "Michael Bolton"
TITLE "Greatest Hits. Steel Box Collection"
FILE "01 - Said I Love You...But I Lied.wav" WAVE
TRACK 01 AUDIO
TITLE "Said I Love You...But I Lied"
PERFORMER "Michael Bolton"
FLAGS DCP
INDEX 01 00:00:00
TRACK 02 AUDIO
TITLE "That's What Love Is All About"
PERFORMER "Michael Bolton"
FLAGS DCP
INDEX 00 04:59:31
FILE "02 - That's What Love Is All About.wav" WAVE
INDEX 01 00:00:00
TRACK 03 AUDIO
TITLE "When A Man Loves A Woman"
PERFORMER "Michael Bolton"
FLAGS DCP
INDEX 00 03:56:74
FILE "03 - When A Man Loves A Woman.wav" WAVE
INDEX 01 00:00:00
TRACK 04 AUDIO
TITLE "My Girl"
PERFORMER "Michael Bolton"
FLAGS DCP
INDEX 00 03:51:21
FILE "04 - My Girl.wav" WAVE
INDEX 01 00:00:00
TRACK 05 AUDIO
TITLE "(Sittin' On) The Dock Of The Bay"
PERFORMER "Michael Bolton"
FLAGS DCP
INDEX 00 03:21:02
FILE "05 - (Sittin' On) The Dock Of The Bay.wav" WAVE
INDEX 01 00:00:00
TRACK 06 AUDIO
TITLE "Once In A Lifetime"
PERFORMER "Michael Bolton"
FLAGS DCP
INDEX 00 03:51:29
FILE "06 - Once In A Lifetime.wav" WAVE
INDEX 01 00:00:00
TRACK 07 AUDIO
TITLE "Time, Love And Tenderness"
PERFORMER "Michael Bolton"
FLAGS DCP
INDEX 00 05:53:46
FILE "07 - Time, Love And Tenderness.wav" WAVE
INDEX 01 00:00:00
TRACK 08 AUDIO
TITLE "Whiter Shade Of Pale"
PERFORMER "Michael Bolton"
FLAGS DCP
INDEX 00 04:17:17
FILE "08 - Whiter Shade Of Pale.wav" WAVE
INDEX 01 00:00:00
TRACK 09 AUDIO
TITLE "Drift Away"
PERFORMER "Michael Bolton"
FLAGS DCP
INDEX 00 04:42:68
FILE "09 - Drift Away.wav" WAVE
INDEX 01 00:00:00
TRACK 10 AUDIO
TITLE "How Am I Supposed To Live Without You"
PERFORMER "Michael Bolton"
FLAGS DCP
INDEX 00 06:05:45
FILE "10 - How Am I Supposed To Live Without You.wav" WAVE
INDEX 01 00:00:00
[свернуть]

Лог проверки качества

AUDIOCHECKER v2.0 beta (build 457) - by Dester -
~~~~~~~~~~~~~~~~~~~~~~~~~~~~~~~~~~
-=== НЕ РЕДАКТИРУЙТЕ ЭТОТ ФАЙЛ! ===-

Путь: ...\2009 - Greatest Hits. Steel Box Collection [88697458652]

01 -=- 01 - Said I Love You...But I Lied.flac -=- CDDA (100%)
02 -=- 02 - That's What Love Is All About.flac -=- CDDA (100%)
03 -=- 03 - When A Man Loves A Woman.flac -=- CDDA (100%)
04 -=- 04 - My Girl.flac -=- CDDA (100%)
05 -=- 05 - (Sittin' On) The Dock Of The Bay.flac -=- CDDA (100%)
06 -=- 06 - Once In A Lifetime.flac -=- CDDA (100%)
07 -=- 07 - Time, Love And Tenderness.flac -=- CDDA (99%)
08 -=- 08 - Whiter Shade Of Pale.flac -=- CDDA (100%)
09 -=- 09 - Drift Away.flac -=- CDDA (100%)
10 -=- 10 - How Am I Supposed To Live Without You.flac -=- CDDA (100%)

Сводка 99,90% CDDA

98527876
[свернуть]

Скачать Michael Bolton - Greatest Hits. Steel Box Collection



password: sergych
[свернуть]
My opinion of release: 10/10
__________________
TAIFUN.Wings of Soul

Вверх
Пользователь сказал cпасибо:
swint68 (28.06.2017)
Похожие темы
Тема Автор Раздел Ответов Последнее сообщение
Альбом Michael Bolton - The One Thing sergych Зарубежная Поп-Музыка 0 09.11.2013 19:43
Сборник Cyndi Lauper - Greatest Hits. Steel Box Collection sergych Soft Rock 0 09.11.2013 17:48
Сборник Rockets - The Definitive Collection (Original Greatest Hits) sergych Electro 0 08.08.2010 15:41
Релиз Michael Bolton - One World One Love PUPOKIN Зарубежная Поп-Музыка 0 02.10.2009 10:09


Метки
2009 , greatest hits. steel box collection , michael bolton , pop , pop rock , soft rock , soul

Опции темы

Ваши права в разделе
Вы не можете создавать новые темы
Вы не можете отвечать в темах
Вы не можете прикреплять вложения
Вы не можете редактировать свои сообщения

Быстрый переход



Текущее время: 09:09. Часовой пояс GMT +3.
Powered by vBulletin® Version 3.8.10
Copyright ©2000 - 2018, vBulletin Solutions, Inc. Перевод: zCarot
© 2008 - 2018 Taifun With Song
Яндекс.Метрика