TAIFUN With Song
Навигация
Вернуться   TAIFUN With Song > Music (обменник) > Другие направления музыки > R&B
Расширенный поиск
R&B Ссылки на музыку в этом стиле

А знаете ли Вы, что...
Горький и Шаляпин пробовались в хор!
«Шаляпин и Горький практически в одно и то же время пробовались в хор. Горького взяли, Шаляпина нет.»
 
Опции темы

  #1
Старый 10.11.2013, 20:26
sergych
Координатор
Досье
 
Аватар для sergych
Релиз Boyz II Men – The Christmas Collection


1993(2003) - Boyz II Men – The Christmas Collection




Исполнитель/Artist: Boyz II Men
Альбом/Album: The Christmas Collection
Год/Year: 1993
Ремастеринг/Remaster: 2003
Жанр/Genre: r'n'b, christmas
Страна/Country: Соединённые Штаты
Рекорд-лейбл/Record label: Motown Records
Номер в каталоге/Catalogue #: B0000611-02 / 044003849723
Формат/Format: Free Lossless Audio Codec (*.flac)
Качество/Quality: Lossless
Тип рипа/RIP Type: tracks+.cue
Продолжительность/Length: 00:40:57
Источник/Source: Собственный рип
Размер/Size: 301.5 MB

Сканы в комплекте

Треклист

01 - Silent Night (Intro)
02 - Let It Snow
03 - Share Love
04 - You're Not Alone
05 - A Joyous Song
06 - Why Christmas
07 - Cold December Nights
08 - Do They Know
09 - Who Would Have Thought
10 - Silent Night
[свернуть]

youtube.com

[свернуть]

EAC лог

Exact Audio Copy V1.0 beta 3 from 29. August 2011

EAC extraction logfile from 10. November 2013, 22:42

Boyz II Men / Christmas Interpretations

Used drive : ATAPI iHAS124 D Adapter: 0 ID: 2

Read mode : Secure
Utilize accurate stream : Yes
Defeat audio cache : Yes
Make use of C2 pointers : No

Read offset correction : 6
Overread into Lead-In and Lead-Out : No
Fill up missing offset samples with silence : Yes
Delete leading and trailing silent blocks : No
Null samples used in CRC calculations : Yes
Used interface : Installed external ASPI interface
Gap handling : Appended to previous track

Used output format : User Defined Encoder
Selected bitrate : 1024 kBit/s
Quality : High
Add ID3 tag : No
Command line compressor : C:\Program Files (x86)\Exact Audio Copy\Flac\flac.exe
Additional command line options : -6 -V -T "ARTIST=%artist%" -T "TITLE=%title%" -T "ALBUM=%albumtitle%" -T "DATE=%year%" -T "TRACKNUMBER=%tracknr%" -T "GENRE=%genre%" -T "COMMENT=%comment%" -T "BAND=%albuminterpret%" -T "COMPOSER=%composer%" %haslyrics%--tag-from-file=LYRICS="%lyricsfile%"%haslyrics% -T "DISCNUMBER=%cdnumber%" -T "TOTALDISCS=%totalcds%" -T "TOTALTRACKS=%numtracks%" %hascover%--picture="%coverfile%"%hascover% %source% -o %dest%


TOC of the extracted CD

Track | Start | Length | Start sector | End sector
---------------------------------------------------------
1 | 0:00.32 | 1:07.55 | 32 | 5111
2 | 1:08.12 | 4:11.68 | 5112 | 24004
3 | 5:20.05 | 3:32.47 | 24005 | 39951
4 | 8:52.52 | 5:06.70 | 39952 | 62971
5 | 13:59.47 | 5:53.15 | 62972 | 89461
6 | 19:52.62 | 4:53.03 | 89462 | 111439
7 | 24:45.65 | 4:11.52 | 111440 | 130316
8 | 28:57.42 | 3:29.00 | 130317 | 145991
9 | 32:26.42 | 6:06.43 | 145992 | 173484
10 | 38:33.10 | 2:32.25 | 173485 | 184909


Track 1

Filename C:\mm\Boyz II Men\2003 - The Christmas Collection [B0000611-02]\01 - Silent Night (Intro).wav

Pre-gap length 0:00:02.32

Peak level 77.0 %
Extraction speed 2.5 X
Track quality 99.8 %
Test CRC 43CF6B69
Copy CRC 43CF6B69
Accurately ripped (confidence 2) [072E74E8] (AR v1)
Copy OK

Track 2

Filename C:\mm\Boyz II Men\2003 - The Christmas Collection [B0000611-02]\02 - Let It Snow.wav

Peak level 94.7 %
Extraction speed 5.4 X
Track quality 100.0 %
Test CRC 8056C335
Copy CRC 8056C335
Accurately ripped (confidence 2) [3734EF40] (AR v1)
Copy OK

Track 3

Filename C:\mm\Boyz II Men\2003 - The Christmas Collection [B0000611-02]\03 - Share Love.wav

Pre-gap length 0:00:00.58

Peak level 94.6 %
Extraction speed 5.9 X
Track quality 100.0 %
Test CRC 32CB233B
Copy CRC 32CB233B
Accurately ripped (confidence 2) [C8F37041] (AR v1)
Copy OK

Track 4

Filename C:\mm\Boyz II Men\2003 - The Christmas Collection [B0000611-02]\04 - You're Not Alone.wav

Pre-gap length 0:00:01.20

Peak level 94.6 %
Extraction speed 6.7 X
Track quality 100.0 %
Test CRC A4616BF7
Copy CRC A4616BF7
Accurately ripped (confidence 2) [57E98714] (AR v1)
Copy OK

Track 5

Filename C:\mm\Boyz II Men\2003 - The Christmas Collection [B0000611-02]\05 - A Joyous Song.wav

Pre-gap length 0:00:00.15

Peak level 93.7 %
Extraction speed 6.6 X
Track quality 99.9 %
Test CRC 2163D90E
Copy CRC 2163D90E
Accurately ripped (confidence 2) [B9561C0F] (AR v1)
Copy OK

Track 6

Filename C:\mm\Boyz II Men\2003 - The Christmas Collection [B0000611-02]\06 - Why Christmas.wav

Pre-gap length 0:00:01.52

Peak level 94.7 %
Extraction speed 7.9 X
Track quality 100.0 %
Test CRC 6C9E315A
Copy CRC 6C9E315A
Accurately ripped (confidence 2) [07DEB018] (AR v1)
Copy OK

Track 7

Filename C:\mm\Boyz II Men\2003 - The Christmas Collection [B0000611-02]\07 - Cold December Nights.wav

Pre-gap length 0:00:00.28

Peak level 94.6 %
Extraction speed 8.2 X
Track quality 100.0 %
Test CRC 4FCAF276
Copy CRC 4FCAF276
Accurately ripped (confidence 2) [A8791C0D] (AR v1)
Copy OK

Track 8

Filename C:\mm\Boyz II Men\2003 - The Christmas Collection [B0000611-02]\08 - Do They Know.wav

Pre-gap length 0:00:00.60

Peak level 94.6 %
Extraction speed 8.3 X
Track quality 100.0 %
Test CRC FBDC6F17
Copy CRC FBDC6F17
Accurately ripped (confidence 2) [B23C86F7] (AR v1)
Copy OK

Track 9

Filename C:\mm\Boyz II Men\2003 - The Christmas Collection [B0000611-02]\09 - Who Would Have Thought.wav

Pre-gap length 0:00:00.72

Peak level 94.6 %
Extraction speed 9.3 X
Track quality 100.0 %
Test CRC C1650EDF
Copy CRC C1650EDF
Accurately ripped (confidence 2) [4D398E78] (AR v1)
Copy OK

Track 10

Filename C:\mm\Boyz II Men\2003 - The Christmas Collection [B0000611-02]\10 - Silent Night.wav

Pre-gap length 0:00:01.15

Peak level 72.7 %
Extraction speed 8.6 X
Track quality 100.0 %
Test CRC 0DBA1F26
Copy CRC 0DBA1F26
Accurately ripped (confidence 2) [A4FFAAA0] (AR v1)
Copy OK


All tracks accurately ripped

No errors occurred

End of status report
[свернуть]

Файл CUE

REM DATE 1993
REM DISCID 8109A10A
REM COMMENT "ExactAudioCopy v1.0b3"
PERFORMER "Boyz II Men"
TITLE "Christmas Interpretations"
FILE "01 - Silent Night (Intro).wav" WAVE
TRACK 01 AUDIO
TITLE "Silent Night (Intro)"
PERFORMER "Boyz II Men"
PREGAP 00:00:32
INDEX 01 00:00:00
FILE "02 - Let It Snow.wav" WAVE
TRACK 02 AUDIO
TITLE "Let It Snow"
PERFORMER "Boyz II Men"
INDEX 01 00:00:00
TRACK 03 AUDIO
TITLE "Share Love"
PERFORMER "Boyz II Men"
INDEX 00 04:11:10
FILE "03 - Share Love.wav" WAVE
INDEX 01 00:00:00
TRACK 04 AUDIO
TITLE "You're Not Alone"
PERFORMER "Boyz II Men"
INDEX 00 03:31:27
FILE "04 - You're Not Alone.wav" WAVE
INDEX 01 00:00:00
TRACK 05 AUDIO
TITLE "A Joyous Song"
PERFORMER "Boyz II Men"
INDEX 00 05:06:55
FILE "05 - A Joyous Song.wav" WAVE
INDEX 01 00:00:00
TRACK 06 AUDIO
TITLE "Why Christmas"
PERFORMER "Boyz II Men"
INDEX 00 05:51:38
FILE "06 - Why Christmas.wav" WAVE
INDEX 01 00:00:00
TRACK 07 AUDIO
TITLE "Cold December Nights"
PERFORMER "Boyz II Men"
INDEX 00 04:52:50
FILE "07 - Cold December Nights.wav" WAVE
INDEX 01 00:00:00
TRACK 08 AUDIO
TITLE "Do They Know"
PERFORMER "Boyz II Men"
INDEX 00 04:10:67
FILE "08 - Do They Know.wav" WAVE
INDEX 01 00:00:00
TRACK 09 AUDIO
TITLE "Who Would Have Thought"
PERFORMER "Boyz II Men"
INDEX 00 03:28:03
FILE "09 - Who Would Have Thought.wav" WAVE
INDEX 01 00:00:00
TRACK 10 AUDIO
TITLE "Silent Night"
PERFORMER "Boyz II Men"
INDEX 00 06:05:28
FILE "10 - Silent Night.wav" WAVE
INDEX 01 00:00:00
[свернуть]

Лог проверки качества

AUDIOCHECKER v2.0 beta (build 457) - by Dester -
~~~~~~~~~~~~~~~~~~~~~~~~~~~~~~~~~~
-=== НЕ РЕДАКТИРУЙТЕ ЭТОТ ФАЙЛ! ===-

Путь: ...\2003 - The Christmas Collection [B0000611-02]

01 -=- 01 - Silent Night (Intro).flac -=- CDDA (100%)
02 -=- 02 - Let It Snow.flac -=- CDDA (100%)
03 -=- 03 - Share Love.flac -=- CDDA (100%)
04 -=- 04 - You're Not Alone.flac -=- CDDA (100%)
05 -=- 05 - A Joyous Song.flac -=- CDDA (100%)
06 -=- 06 - Why Christmas.flac -=- CDDA (100%)
07 -=- 07 - Cold December Nights.flac -=- CDDA (100%)
08 -=- 08 - Do They Know.flac -=- CDDA (100%)
09 -=- 09 - Who Would Have Thought.flac -=- CDDA (100%)
10 -=- 10 - Silent Night.flac -=- CDDA (100%)

Сводка 100,00% CDDA

5532356
[свернуть]

Скачать Boyz II Men – The Christmas Collection



password: sergych
[свернуть]
My opinion of release: 10/10
__________________
TAIFUN.Wings of Soul

Вверх
Похожие темы
Тема Автор Раздел Ответов Последнее сообщение
Релиз Frank Sinatra - The Christmas Collection fly123 Jazz и Blues 0 07.12.2011 10:08
Релиз Olivia Newton-John - Christmas Collection PUPOKIN Зарубежная Поп-Музыка 0 08.12.2010 09:41
Альбом Jackson 5 - The Best Of Jackson 5. 20th Century Masters The Christmas Collection sergych Зарубежная Поп-Музыка 0 12.12.2008 21:19
Boyz II Men - Can't Let Her Go sergych R&B 0 06.07.2008 10:32
Boyz II Men sergych R&B [FAQ] 0 06.07.2008 09:24


Метки
1993 , boyz ii men , christmas , r'n'b , the christmas collection

Опции темы

Ваши права в разделе
Вы не можете создавать новые темы
Вы не можете отвечать в темах
Вы не можете прикреплять вложения
Вы не можете редактировать свои сообщения

Быстрый переход



Текущее время: 17:21. Часовой пояс GMT +3.
Powered by vBulletin® Version 3.8.10
Copyright ©2000 - 2018, vBulletin Solutions, Inc. Перевод: zCarot
© 2008 - 2018 Taifun With Song
Яндекс.Метрика