TAIFUN With Song
Навигация
Вернуться   TAIFUN With Song > Music (обменник) > Rock > Progressive Rock
Расширенный поиск
Progressive Rock Единственной универсальной характеристикой прогрессивного рока является усложнение музыкальной формы. Это проявляется в удлиннении и усложнении музыкальных пьес, тяготении к циклическим формам академической музыки; расширении репертуара используемых тембров, усложнении метра и ритма, использовании нетрадиционных для рока мелодических и гармонических решений; поэзии, уходящей от тем развлекательной музыки и тяготеющей к философским «вечным темам», фантастической и фентезийной тематике; переплетении с классической и современной академической музыкой, джазом.

А знаете ли Вы, что...
Какой музыкант однажды спел о том, что забыл слова этой песни?
«Однажды на концерте во Франции солист исландской группы Sigur Rós Йонси забыл текст песни. Не остановившись, он сымпровизировал под ту же музыку: «Чёрт, я забыл слова. Но это ничего. Потому что я во Франции, где никто не поймёт».»
 
Опции темы

  #1
Старый 19.10.2008, 16:09
sergych
Координатор
Досье
 
Аватар для sergych
Релиз Manfred Mann's Earth Band - The Roaring Silence


1976 - Manfred Mann's Earth Band - The Roaring Silence




Исполнитель/Artist: Manfred Mann's Earth Band
Альбом/Album: The Roaring Silence
Год/Year: 1976
Жанр/Genre: Progressive rock, instrumental
Страна/Country: Japan
Рекорд-лейбл/Record label: Century Records
Формат/Format: Free Lossless Audio Codec (*.flac)
Качество/Quality: Lossless
Тип рипа/RIP Type: image+.cue
Продолжительность/Length: 00:39:42
Источник/Source: Из интернета
Размер/Size: 291.7 MB

Сканы в комплекте

Треклист

01 - Blinded By The Light
02 - Singing The Dolphin Through
03 - Questions
04 - The Road To Babylon
05 - This Side Of Paradise
06 - Starbird
07 - Waiter, There's A Yawn In My Ear
[свернуть]

youtube.com

[свернуть]

Исполнители/Performers

Manfred Mann - keyboards, backing vocals
Colin Pattenden - bass
Dave Flett - lead guitar
Chris Hamlet Thompson - vocals, guitar
Chris Slade - drums, percussion, backing vocals

with
Doreen Chanter - backing vocals
Irene Chanter - backing vocals
Susanne Lynch - backing vocals
Mick Rogers - backing vocals
Barbara Thompson - saxophone
[свернуть]

EAC лог

Exact Audio Copy V0.99 prebeta 5 from 4. May 2009

Отчёт EAC об извлечении, выполненном 19. июля 2011, 13:30

Manfred Mann's Earth Band / The Roaring Silence

Дисковод: ASUS SDRW-08D2S-U Adapter: 2 ID: 0

Режим чтения : Достоверность
Использование точного потока : Да
Отключение кэша аудио : Да
Использование указателей C2 : Нет

Коррекция смещения при чтении : 103
Способность читать области Lead-in и Lead-out : Нет
Заполнение пропущенных сэмплов тишиной : Да
Удаление блоков с тишиной в начале и конце : Нет
При вычислениях CRC использовались нулевые сэмплы : Да
Интерфейс : Встроенный Win32-интерфейс для Win NT/2000

Выходной формат : Пользовательский кодировщик
Выбранный битрейт : 768 kBit/s
Качество : Высокий
Добавление ID3-тэга : Нет
Утилита сжатия : C:\Program Files\Exact Audio Copy\FLAC\FLAC.EXE
Дополнительные параметры : -8 -V %s


TOC извлечённого CD

Трек | Старт | Длительность | Начальный сектор | Конечный сектор
---------------------------------------------------------------------
1 | 0:00.00 | 7:05.52 | 0 | 31926
2 | 7:05.52 | 8:15.38 | 31927 | 69089
3 | 15:21.15 | 3:58.65 | 69090 | 87004
4 | 19:20.05 | 6:52.27 | 87005 | 117931
5 | 26:12.32 | 4:44.68 | 117932 | 139299
6 | 30:57.25 | 3:07.65 | 139300 | 153389
7 | 34:05.15 | 5:37.02 | 153390 | 178666


Характеристики диапазона извлечения и сообщения об ошибках

Выбранный диапазон

Имя файла D:\uTorrent.compl\Manfred Mann's Earth Band - Original Albums 1972-1982 ( Japan & West Germany 1st Press )\The Roaring Silence 1976 ( 1990 Japan 1st Press CECC-00123 )\Manfred Mann's Earth Band - The Roaring Silence.wav

Пиковый уровень 100.0 %
Качество диапазона 99.9 %
CRC теста E65BBA46
CRC копии E65BBA46
Копирование... OK

Ошибок не произошло


AccurateRip: сводка

Трек 1 нет в базе данных
Трек 2 нет в базе данных
Трек 3 нет в базе данных
Трек 4 нет в базе данных
Трек 5 нет в базе данных
Трек 6 нет в базе данных
Трек 7 нет в базе данных

Ни одного трека нет в базе AccurateRip

Конец отчёта
[свернуть]

Файл CUE

REM GENRE Rock
REM DATE 1976
REM DISCID 5C094E07
REM COMMENT "ExactAudioCopy v0.99pb5"
PERFORMER "Manfred Mann's Earth Band"
TITLE "The Roaring Silence"
FILE "Manfred Mann's Earth Band - The Roaring Silence.flac" WAVE
TRACK 01 AUDIO
TITLE "Blinded By The Light"
PERFORMER "Manfred Mann's Earth Band"
INDEX 01 00:00:00
TRACK 02 AUDIO
TITLE "Singing The Dolphin Through"
PERFORMER "Manfred Mann's Earth Band"
INDEX 00 07:03:72
INDEX 01 07:05:52
TRACK 03 AUDIO
TITLE "Questions"
PERFORMER "Manfred Mann's Earth Band"
INDEX 00 15:17:57
INDEX 01 15:21:15
TRACK 04 AUDIO
TITLE "The Road To Babylon"
PERFORMER "Manfred Mann's Earth Band"
INDEX 00 19:17:62
INDEX 01 19:20:05
TRACK 05 AUDIO
TITLE "This Side Of Paradise"
PERFORMER "Manfred Mann's Earth Band"
INDEX 01 26:12:32
TRACK 06 AUDIO
TITLE "Starbird"
PERFORMER "Manfred Mann's Earth Band"
INDEX 00 30:56:37
INDEX 01 30:57:25
TRACK 07 AUDIO
TITLE "Waiter, There's A Yawn In My Ear"
PERFORMER "Manfred Mann's Earth Band"
INDEX 00 34:04:30
INDEX 01 34:05:15
[свернуть]

Лог проверки качества

AUDIOCHECKER v2.0 beta (build 457) - by Dester -
~~~~~~~~~~~~~~~~~~~~~~~~~~~~~~~~~~
-=== НЕ РЕДАКТИРУЙТЕ ЭТОТ ФАЙЛ! ===-

Путь: ...\Manfred Mann's Earth Band . 1976 . The Roaring Silence (CECC-00123)

01 -=- Manfred Mann's Earth Band - The Roaring Silence.flac -=- CDDA (87%)

72733780
[свернуть]

Скачать Manfred Mann's Earth Band - The Roaring Silence



password: sergych
[свернуть]
My opinion of release: 10/10

Release info RInfo

First album with the new line-up: Chris Thompson (vocals, guitar) and Dave Flett (lead guitar) replacing Mick Rogers (guitar, vocals). Includes the international hit "Blinded by the Light", a re-working of the Bruce Springsteen song.
__________________
TAIFUN.Wings of Soul


Последний раз редактировалось sergych, 19.12.2013 в 04:09. Причина: перезаливка
Вверх
  #2
Старый 18.06.2016, 12:50
sergych
Координатор
Досье
 
Аватар для sergych
Релиз Manfred Mann's Earth Band - The Roaring Silence


1976(2005) - Manfred Mann's Earth Band - The Roaring Silence {Paper Sleeve Collection}




Исполнитель/Artist: Manfred Mann's Earth Band
Альбом/Album: The Roaring Silence {Paper Sleeve Collection}
Год/Year: 1976
Ремастеринг/Remaster: 2005
Жанр/Genre: Hard rock, progressive rock, jazz rock
Страна/Country: Япония
Рекорд-лейбл/Record label: Air Mail
Номер в каталоге/Catalogue #: AIRAC-1129
Формат/Format: Free Lossless Audio Codec (*.flac)
Качество/Quality: Lossless
Тип рипа/RIP Type: image+.cue
Продолжительность/Length: 00:47:09
Источник/Source: Собственный рип
Размер/Size: 363.5 MB

Сканы в комплекте

Треклист

01. Blinded by the Light [0:07:07.50]
02. Singing the Dolphin through [0:08:18.55]
03. Waiter, there's a yawn in my ear [0:05:38.43]
04. The Road to Babylon [0:06:52.61]
05. This Side of Paradise [0:04:47.40]
06. Starbird [0:03:08.52]
07. Questions [0:04:05.23]
08. Spirits in the Night [bonus track] [0:03:15.54]
09. Blinded by the Light (Single Edit) [bonus track] [0:03:53.58]
[свернуть]

youtube.com

[свернуть]

EAC лог

Exact Audio Copy V1.1 from 23. June 2015

EAC extraction logfile from 14. June 2016, 21:55

Manfred Mann's Earth Band / The Roaring Silence (Remastered)

Used drive : ATAPI iHAS124 D Adapter: 0 ID: 2

Read mode : Secure
Utilize accurate stream : Yes
Defeat audio cache : Yes
Make use of C2 pointers : No

Read offset correction : 6
Overread into Lead-In and Lead-Out : No
Fill up missing offset samples with silence : Yes
Delete leading and trailing silent blocks : No
Null samples used in CRC calculations : Yes
Used interface : Installed external ASPI interface

Used output format : User Defined Encoder
Selected bitrate : 1024 kBit/s
Quality : High
Add ID3 tag : Yes
Command line compressor : C:\Program Files (x86)\Exact Audio Copy\Flac\flac.exe
Additional command line options : -6 -V -T "ARTIST=%artist%" -T "TITLE=%title%" -T "ALBUM=%albumtitle%" -T "DATE=%year%" -T "TRACKNUMBER=%tracknr%" -T "GENRE=%genre%" -T "COMMENT=%comment%" -T "BAND=%albuminterpret%" -T "COMPOSER=%composer%" %haslyrics%--tag-from-file=LYRICS="%lyricsfile%"%haslyrics% -T "DISCNUMBER=%cdnumber%" -T "TOTALDISCS=%totalcds%" -T "TOTALTRACKS=%numtracks%" %hascover%--picture="%coverfile%"%hascover% %source% -o %dest%


TOC of the extracted CD

Track | Start | Length | Start sector | End sector
---------------------------------------------------------
1 | 0:00.00 | 7:07.50 | 0 | 32074
2 | 7:07.50 | 8:18.55 | 32075 | 69479
3 | 15:26.30 | 5:38.43 | 69480 | 94872
4 | 21:04.73 | 6:52.61 | 94873 | 125833
5 | 27:57.59 | 4:47.40 | 125834 | 147398
6 | 32:45.24 | 3:08.52 | 147399 | 161550
7 | 35:54.01 | 4:05.23 | 161551 | 179948
8 | 39:59.24 | 3:15.54 | 179949 | 194627
9 | 43:15.03 | 3:53.58 | 194628 | 212160


Range status and errors

Selected range

Filename C:\mm\Manfred Mann's Earth Band\1976(2005) - The Roaring Silence [AIRAC-1129]\Manfred Mann's Earth Band - The Roaring Silence (Remastered).wav

Peak level 96.6 %
Extraction speed 3.3 X
Range quality 100.0 %
Test CRC 7131A5B5
Copy CRC 7131A5B5
Copy OK

No errors occurred


AccurateRip summary

Track 1 accurately ripped (confidence 2) [C1713A95] (AR v1)
Track 2 accurately ripped (confidence 2) [BCA12F26] (AR v1)
Track 3 accurately ripped (confidence 2) [E099D9E8] (AR v1)
Track 4 accurately ripped (confidence 2) [FAB6F398] (AR v1)
Track 5 accurately ripped (confidence 2) [B6205BDA] (AR v1)
Track 6 accurately ripped (confidence 2) [6EE8C442] (AR v1)
Track 7 accurately ripped (confidence 2) [9088DA8F] (AR v1)
Track 8 accurately ripped (confidence 2) [238D09A1] (AR v1)
Track 9 accurately ripped (confidence 2) [1FAAD462] (AR v1)

All tracks accurately ripped

End of status report

---- CUETools DB Plugin V2.1.6

[CTDB TOCID: IfmLmAuFc56OEhlz77Vj.RU0XrA-] found
Submit result: IfmLmAuFc56OEhlz77Vj.RU0XrA- has been confirmed
Track | CTDB Status
1 | (5/5) Accurately ripped
2 | (5/5) Accurately ripped
3 | (5/5) Accurately ripped
4 | (5/5) Accurately ripped
5 | (5/5) Accurately ripped
6 | (5/5) Accurately ripped
7 | (5/5) Accurately ripped
8 | (5/5) Accurately ripped
9 | (5/5) Accurately ripped
[свернуть]

Файл CUE

REM GENRE "Progressive Rock"
REM DATE 1976
REM DISCID 8D0B0C09
REM COMMENT "ExactAudioCopy v1.1"
PERFORMER "Manfred Mann's Earth Band"
TITLE "The Roaring Silence (Remastered)"
FILE "Manfred Mann's Earth Band - The Roaring Silence (Remastered).flac" WAVE
TRACK 01 AUDIO
TITLE "Blinded by the Light"
PERFORMER "Manfred Mann's Earth Band"
INDEX 01 00:00:00
TRACK 02 AUDIO
TITLE "Singing the Dolphin through"
PERFORMER "Manfred Mann's Earth Band"
INDEX 01 07:07:50
TRACK 03 AUDIO
TITLE "Waiter, there's a yawn in my ear"
PERFORMER "Manfred Mann's Earth Band"
INDEX 01 15:26:30
TRACK 04 AUDIO
TITLE "The Road to Babylon"
PERFORMER "Manfred Mann's Earth Band"
INDEX 01 21:04:73
TRACK 05 AUDIO
TITLE "This Side of Paradise"
PERFORMER "Manfred Mann's Earth Band"
INDEX 01 27:57:59
TRACK 06 AUDIO
TITLE "Starbird"
PERFORMER "Manfred Mann's Earth Band"
INDEX 01 32:45:24
TRACK 07 AUDIO
TITLE "Questions"
PERFORMER "Manfred Mann's Earth Band"
INDEX 01 35:54:01
TRACK 08 AUDIO
TITLE "Spirits in the Night [bonus track]"
PERFORMER "Manfred Mann's Earth Band"
INDEX 01 39:59:24
TRACK 09 AUDIO
TITLE "Blinded by the Light (Single Edit) [bonus track]"
PERFORMER "Manfred Mann's Earth Band"
INDEX 01 43:15:03
[свернуть]

Лог проверки качества

AUDIOCHECKER v2.0 beta (build 457) - by Dester -
~~~~~~~~~~~~~~~~~~~~~~~~~~~~~~~~~~
-=== НЕ РЕДАКТИРУЙТЕ ЭТОТ ФАЙЛ! ===-

Путь: ...\1976(2005) - The Roaring Silence [AIRAC-1129]

1 -=- Manfred Mann's Earth Band - The Roaring Silence (Remastered).flac -=- MPEG (90%)

135900244
[свернуть]

Спектр частот

[свернуть]

Скачать Manfred Mann's Earth Band - The Roaring Silence



password: sergych
[свернуть]
My opinion of release: 10/10

Release info RInfo

Ни OBI, ни привычного монохромного буклета с японистыми закорючками. В каком комплекте достался, - в таком и получайте
Зато альбом из числа моих любимчиков, да и бонусы-треки лишними не бывают
__________________
TAIFUN.Wings of Soul

Вверх
Пользователь сказал cпасибо:
PUPOKIN (21.06.2016)
Похожие темы
Тема Автор Раздел Ответов Последнее сообщение
Альбом Manfred Mann's Earth Band - The Good Earth sergych Progressive Rock 1 24.06.2016 18:10
Сборник Manfred Mann's Earth Band - The Best of Manfred Mann's Earth Band {Warner Archives} sergych Progressive Rock 0 19.08.2010 11:12
Live Manfred Mann's Earth Band - Mann Alive sergych Progressive Rock 0 02.08.2010 18:01
Альбом Manfred Mann's Earth Band - Watch sergych Progressive Rock 0 19.10.2008 17:28
Альбом Manfred Mann's Earth Band - Manfred Mann's Earth Band sergych Progressive Rock 0 18.10.2008 22:29


Метки
1976 , art rock , hard rock , instrumental , jazz rock , manfred mann , manfred mann's earth band , progressive rock , the roaring silence , the roaring silence {paper sleeve collection}

Опции темы

Ваши права в разделе
Вы не можете создавать новые темы
Вы не можете отвечать в темах
Вы не можете прикреплять вложения
Вы не можете редактировать свои сообщения

Быстрый переход



Текущее время: 22:38. Часовой пояс GMT +3.
Powered by vBulletin® Version 3.8.10
Copyright ©2000 - 2018, vBulletin Solutions, Inc. Перевод: zCarot
© 2008 - 2018 Taifun With Song
Яндекс.Метрика