TAIFUN With Song
Навигация
Вернуться   TAIFUN With Song > Music (обменник) > Rock > Russian Rock
Расширенный поиск
Russian Rock Альбомы рок-групп стран СНГ

А знаете ли Вы, что...
Кто написал чёрный квадрат за четверть века до Малевича?
«Французский писатель и юморист Альфонс Алле за четверть века до Казимира Малевича написал чёрный квадрат — картину под названием «Битва негров в пещере глубокой ночью». Также он почти на семьдесят лет предвосхитил минималистическую музыкальную пьесу из одной тишины «4’33"» Джона Кейджа своим аналогичным произведением «Траурный марш для похорон великого глухого».»
 
Опции темы

  #1
Старый 12.12.2015, 20:40
sergych
Координатор
Досье
 
Аватар для sergych
Релиз Аквариум - Акустика (История Аквариума, Том I)


1982(2002) - Аквариум - Акустика (История Аквариума, Том I) {Антология}




Исполнитель/Artist: Аквариум
Альбом/Album: Акустика (История Аквариума, Том I) {Антология}
Год/Year: 1982
Ремастеринг/Remaster: 2002
Жанр/Genre: Rock, Art Rock
Страна/Country: Россия
Рекорд-лейбл/Record label: студия "Союз"
Номер в каталоге/Catalogue #: SZCD 1458-02
Формат/Format: Free Lossless Audio Codec (*.flac)
Качество/Quality: Lossless
Тип рипа/RIP Type: image+.cue
Продолжительность/Length: 00:47:27
Источник/Source: Собственный рип
Размер/Size: 293.8 MB

Сканы в комплекте

Треклист

01. Держаться корней [0:03:21.12]
02. С той стороны зеркального стекла [0:03:16.34]
03. Сталь [0:03:48.27]
04. 25 к 10 [0:02:46.16]
05. К друзьям [0:00:55.04]
06. Десять стрел [0:02:19.10]
07. Почему не падает небо [0:01:51.22]
08. Граф Гарсия [0:01:14.69]
09. Нам всем будет лучше [0:02:41.43]
10. Иванов [0:03:24.27]
11. Второе стеклянное чудо [0:01:53.23]
12. Моей звезде [0:01:40.54]
13. Укравший дождь [0:02:04.20]
14. Песня для нового быта [0:02:32.48]
15. Глядя в TV [bonus track] [0:03:18.01]
16. Сонет [bonus track] [0:03:53.23]
17. Золотых лошадей [bonus track] [0:02:29.17]
18. Контрданс [bonus track] [0:03:56.60]
[свернуть]

youtube.com

[свернуть]

Исполнители/Performers

БГ — вокал, гитара
Всеволод Гаккель — виолончель, вокал
Михаил Файнштейн-Васильев — бас-гитара, перкуссия
Андрей Романов — флейта, вокал
Александр Кондрашкин — ударные, перкуссия

Приглашенные музыканты:
Ольга Першина — вокал
Иван Воропаев — альт (на «Контрдансе»)
[свернуть]

EAC лог

Exact Audio Copy V1.1 from 23. June 2015

EAC extraction logfile from 12. December 2015, 16:33

Аквариум / Акустика (История Аквариума, Том 1) {Антология}

Used drive : ATAPI iHAS124 D Adapter: 0 ID: 2

Read mode : Secure
Utilize accurate stream : Yes
Defeat audio cache : Yes
Make use of C2 pointers : No

Read offset correction : 6
Overread into Lead-In and Lead-Out : No
Fill up missing offset samples with silence : Yes
Delete leading and trailing silent blocks : No
Null samples used in CRC calculations : Yes
Used interface : Installed external ASPI interface

Used output format : User Defined Encoder
Selected bitrate : 1024 kBit/s
Quality : High
Add ID3 tag : Yes
Command line compressor : C:\Program Files (x86)\Exact Audio Copy\Flac\flac.exe
Additional command line options : -6 -V -T "ARTIST=%artist%" -T "TITLE=%title%" -T "ALBUM=%albumtitle%" -T "DATE=%year%" -T "TRACKNUMBER=%tracknr%" -T "GENRE=%genre%" -T "COMMENT=%comment%" -T "BAND=%albuminterpret%" -T "COMPOSER=%composer%" %haslyrics%--tag-from-file=LYRICS="%lyricsfile%"%haslyrics% -T "DISCNUMBER=%cdnumber%" -T "TOTALDISCS=%totalcds%" -T "TOTALTRACKS=%numtracks%" %hascover%--picture="%coverfile%"%hascover% %source% -o %dest%


TOC of the extracted CD

Track | Start | Length | Start sector | End sector
---------------------------------------------------------
1 | 0:00.00 | 3:21.12 | 0 | 15086
2 | 3:21.12 | 3:16.34 | 15087 | 29820
3 | 6:37.46 | 3:48.27 | 29821 | 46947
4 | 10:25.73 | 2:46.16 | 46948 | 59413
5 | 13:12.14 | 0:55.04 | 59414 | 63542
6 | 14:07.18 | 2:19.10 | 63543 | 73977
7 | 16:26.28 | 1:51.22 | 73978 | 82324
8 | 18:17.50 | 1:14.69 | 82325 | 87943
9 | 19:32.44 | 2:41.43 | 87944 | 100061
10 | 22:14.12 | 3:24.27 | 100062 | 115388
11 | 25:38.39 | 1:53.23 | 115389 | 123886
12 | 27:31.62 | 1:40.54 | 123887 | 131440
13 | 29:12.41 | 2:04.20 | 131441 | 140760
14 | 31:16.61 | 2:32.48 | 140761 | 152208
15 | 33:49.34 | 3:18.01 | 152209 | 167059
16 | 37:07.35 | 3:53.23 | 167060 | 184557
17 | 41:00.58 | 2:29.17 | 184558 | 195749
18 | 43:30.00 | 3:56.60 | 195750 | 213509


Range status and errors

Selected range

Filename C:\mm\Аквариум\1982(2002) - Акустика (История Аквариума, Том 1) {Антология} [SZCD 1458-02]\Аквариум - Акустика (История Аквариума, Том 1) {Антология}.wav

Peak level 98.6 %
Extraction speed 8.5 X
Range quality 100.0 %
Test CRC 81727B3D
Copy CRC 81727B3D
Copy OK

No errors occurred


AccurateRip summary

Track 1 accurately ripped (confidence 2) [361B6B0A] (AR v2)
Track 2 accurately ripped (confidence 2) [3B3FA41D] (AR v2)
Track 3 accurately ripped (confidence 2) [BA1A2C8B] (AR v2)
Track 4 accurately ripped (confidence 2) [F14409CD] (AR v2)
Track 5 accurately ripped (confidence 2) [C2DB6EDC] (AR v2)
Track 6 accurately ripped (confidence 2) [C5470243] (AR v2)
Track 7 accurately ripped (confidence 2) [2746229B] (AR v2)
Track 8 accurately ripped (confidence 2) [F2C3096D] (AR v2)
Track 9 accurately ripped (confidence 2) [B7E9EFDA] (AR v2)
Track 10 accurately ripped (confidence 2) [184CC5B1] (AR v2)
Track 11 accurately ripped (confidence 2) [7E6BF7CF] (AR v2)
Track 12 accurately ripped (confidence 2) [8320920C] (AR v2)
Track 13 accurately ripped (confidence 2) [D6CDC009] (AR v2)
Track 14 accurately ripped (confidence 2) [B161B51A] (AR v2)
Track 15 accurately ripped (confidence 2) [D775B997] (AR v2)
Track 16 accurately ripped (confidence 2) [BD597CE9] (AR v2)
Track 17 accurately ripped (confidence 2) [66F740F8] (AR v2)
Track 18 accurately ripped (confidence 2) [36551728] (AR v2)

All tracks accurately ripped

End of status report
[свернуть]

Файл CUE

REM GENRE Rock
REM DATE 2002
REM DISCID 0B0B1E12
REM COMMENT "ExactAudioCopy v1.1"
PERFORMER "Аквариум"
TITLE "Акустика (История Аквариума, Том 1) {Антология}"
FILE "Аквариум - Акустика (История Аквариума, Том 1) {Антология}.flac" WAVE
TRACK 01 AUDIO
TITLE "Держаться корней"
PERFORMER "Аквариум"
INDEX 01 00:00:00
TRACK 02 AUDIO
TITLE "С той стороны зеркального стекла"
PERFORMER "Аквариум"
INDEX 01 03:21:12
TRACK 03 AUDIO
TITLE "Сталь"
PERFORMER "Аквариум"
INDEX 01 06:37:46
TRACK 04 AUDIO
TITLE "25 к 10"
PERFORMER "Аквариум"
INDEX 01 10:25:73
TRACK 05 AUDIO
TITLE "К друзьям"
PERFORMER "Аквариум"
INDEX 01 13:12:14
TRACK 06 AUDIO
TITLE "Десять стрел"
PERFORMER "Аквариум"
INDEX 01 14:07:18
TRACK 07 AUDIO
TITLE "Почему не падает небо"
PERFORMER "Аквариум"
INDEX 01 16:26:28
TRACK 08 AUDIO
TITLE "Граф Гарсия"
PERFORMER "Аквариум"
INDEX 01 18:17:50
TRACK 09 AUDIO
TITLE "Нам всем будет лучше"
PERFORMER "Аквариум"
INDEX 01 19:32:44
TRACK 10 AUDIO
TITLE "Иванов"
PERFORMER "Аквариум"
INDEX 01 22:14:12
TRACK 11 AUDIO
TITLE "Второе стеклянное чудо"
PERFORMER "Аквариум"
INDEX 01 25:38:39
TRACK 12 AUDIO
TITLE "Моей звезде"
PERFORMER "Аквариум"
INDEX 01 27:31:62
TRACK 13 AUDIO
TITLE "Укравший дождь"
PERFORMER "Аквариум"
INDEX 01 29:12:41
TRACK 14 AUDIO
TITLE "Песня для нового быта"
PERFORMER "Аквариум"
INDEX 01 31:16:61
TRACK 15 AUDIO
TITLE "Глядя в TV [bonus track]"
PERFORMER "Аквариум"
INDEX 00 33:40:26
INDEX 01 33:49:34
TRACK 16 AUDIO
TITLE "Сонет [bonus track]"
PERFORMER "Аквариум"
INDEX 00 37:04:63
INDEX 01 37:07:35
TRACK 17 AUDIO
TITLE "Золотых лошадей [bonus track]"
PERFORMER "Аквариум"
INDEX 00 40:57:65
INDEX 01 41:00:58
TRACK 18 AUDIO
TITLE "Контрданс [bonus track]"
PERFORMER "Аквариум"
INDEX 00 43:27:06
INDEX 01 43:30:00
[свернуть]

Лог проверки качества

AUDIOCHECKER v2.0 beta (build 457) - by Dester -
~~~~~~~~~~~~~~~~~~~~~~~~~~~~~~~~~~
-=== НЕ РЕДАКТИРУЙТЕ ЭТОТ ФАЙЛ! ===-

Путь: ...\1982(2002) - Акустика (История Аквариума, Том 1) {Антология} [SZCD 1458-02]

1 -=- Аквариум - Акустика (История Аквариума, Том 1) {Антология}.flac -=- CDDA (100%)

199017236
[свернуть]

Спектр частот

[свернуть]

Скачать Аквариум - Акустика (История Аквариума, Том I)



password: sergych
[свернуть]
My opinion of release: 10/10
__________________
TAIFUN.Wings of Soul

Вверх
Похожие темы
Тема Автор Раздел Ответов Последнее сообщение
Релиз Аквариум - Аквариум Плюс [Limited Edition] PUPOKIN Russian Rock 0 03.12.2013 08:50
Альбом Аквариума переиздадут с раритетами RRock-melomanXP Новости в мире музыки 0 07.03.2013 15:58
Альбом Аквариум - Тайная История Пчеловодства RRock-melomanXP Russian Rock 0 27.12.2012 19:21
Альбом Аквариум - История "Аквариума". Архив, т. 3 sergych Russian Rock 0 08.01.2009 06:48


Метки
1982 , art rock , rock , аквариум , акустика (история аквариума том i)

Опции темы

Ваши права в разделе
Вы не можете создавать новые темы
Вы не можете отвечать в темах
Вы не можете прикреплять вложения
Вы не можете редактировать свои сообщения

Быстрый переход



Текущее время: 22:45. Часовой пояс GMT +3.
Powered by vBulletin® Version 3.8.10
Copyright ©2000 - 2018, vBulletin Solutions, Inc. Перевод: zCarot
© 2008 - 2018 Taifun With Song
Яндекс.Метрика