TAIFUN With Song
Навигация
Вернуться   TAIFUN With Song > Music (обменник) > Rock > Progressive Rock
Расширенный поиск
Progressive Rock Единственной универсальной характеристикой прогрессивного рока является усложнение музыкальной формы. Это проявляется в удлиннении и усложнении музыкальных пьес, тяготении к циклическим формам академической музыки; расширении репертуара используемых тембров, усложнении метра и ритма, использовании нетрадиционных для рока мелодических и гармонических решений; поэзии, уходящей от тем развлекательной музыки и тяготеющей к философским «вечным темам», фантастической и фентезийной тематике; переплетении с классической и современной академической музыкой, джазом.

А знаете ли Вы, что...
Зачем Джимми Хендрикс на некоторых концертах целовал в щёку своего бас-гитариста?
«В песне Джимми Хендрикса «Purple Haze» есть строчка: «Excuse me while I kiss the sky» («Прости меня, когда я целую небеса»). Очень часто слушатели понимали её совсем по-другому: «Excuse me while I kiss this guy» («Прости меня, когда я целую этого парня»). Сам Хендрикс знал об этой ослышке и иногда после исполнения этой строчки целовал в щёку своего бас-гитариста.»
 
Опции темы

  #1
Старый 19.10.2013, 23:46
sergych
Координатор
Досье
 
Аватар для sergych
Релиз Electric Light Orchestra - Face the Music


1975(1991) - Electric Light Orchestra - Face the Music




Исполнитель/Artist: Electric Light Orchestra
Альбом/Album: Face the Music
Год/Year: 1975
Ремастеринг/Remaster: 1991
Жанр/Genre: Symphonic rock, art rock
Страна/Country: Великобритания
Рекорд-лейбл/Record label: Epic
Номер в каталоге/Catalogue #: 982648 2 / 5018665264823
Формат/Format: Free Lossless Audio Codec (*.flac)
Качество/Quality: Lossless
Тип рипа/RIP Type: image+.cue
Продолжительность/Length: 00:36:23
Источник/Source: Из интернета
Размер/Size: 232.5 MB

Сканы в комплекте

Треклист

01 - Fire On High
02 - Waterfall
03 - Evil Woman
04 - Nightrider
05 - Poker
06 - Strange Magic
07 - Down Home Town
08 - One Summer Dream
[свернуть]

youtube.com

[свернуть]

Исполнители/Performers

Jeff Lynne – vocals, guitar, producer
Bev Bevan – drums, percussion, spoken intro (backwards), vocals
Richard Tandy – piano, clavinet, moog, guitar
Kelly Groucutt – bass, vocals
Mik Kaminski – violin
Hugh McDowell – cello
Melvyn Gale – cello
Orchestra conducted by Louis Clark

Additional personnel
Ellie Greenwich – uncredited vocals
Susan Collins – uncredited vocals
Nancy O'Neill – uncredited vocals
Margaret Raymond – uncredited vocals
[свернуть]

EAC лог

Exact Audio Copy V0.99 prebeta 5 from 4. May 2009

EAC extraction logfile from 29. December 2009, 23:56

Electric Light Orchestra / Face The Music

Used drive : HL-DT-STDVDRAM_GSA-T20N Adapter: 1 ID: 0

Read mode : Secure
Utilize accurate stream : Yes
Defeat audio cache : Yes
Make use of C2 pointers : No

Read offset correction : 667
Overread into Lead-In and Lead-Out : No
Fill up missing offset samples with silence : Yes
Delete leading and trailing silent blocks : No
Null samples used in CRC calculations : Yes
Used interface : Native Win32 interface for Win NT & 2000

Used output format : User Defined Encoder
Selected bitrate : 768 kBit/s
Quality : High
Add ID3 tag : No
Command line compressor : C:\Program Files\Exact Audio Copy\Flac\flac.exe
Additional command line options : -6 -V -T "ARTIST=%a" -T "TITLE=%t" -T "ALBUM=%g" -T "DATE=%y" -T "TRACKNUMBER=%n" -T "GENRE=%m" -T "COMMENT=%e" %s -o %d


TOC of the extracted CD

Track | Start | Length | Start sector | End sector
---------------------------------------------------------
1 | 0:00.00 | 5:35.27 | 0 | 25151
2 | 5:35.27 | 4:11.03 | 25152 | 43979
3 | 9:46.30 | 4:34.60 | 43980 | 64589
4 | 14:21.15 | 4:22.42 | 64590 | 84281
5 | 18:43.57 | 3:31.33 | 84282 | 100139
6 | 22:15.15 | 4:28.65 | 100140 | 120304
7 | 26:44.05 | 3:52.55 | 120305 | 137759
8 | 30:36.60 | 5:46.45 | 137760 | 163754


Range status and errors

Selected range

Filename D:\Music\Electric Light Orchestra - Face The Music.wav

Peak level 100.0 %
Range quality 100.0 %
Copy CRC A6BC737B
Copy OK

No errors occurred


AccurateRip summary

Track 1 accurately ripped (confidence 5) [54CAD5FE]
Track 2 accurately ripped (confidence 5) [8A5DE56C]
Track 3 accurately ripped (confidence 5) [269FDD9B]
Track 4 accurately ripped (confidence 5) [757981C8]
Track 5 accurately ripped (confidence 5) [6F3D824B]
Track 6 accurately ripped (confidence 5) [FD7F8548]
Track 7 accurately ripped (confidence 5) [32EF616C]
Track 8 accurately ripped (confidence 4) [AEB5FCEB]

All tracks accurately ripped

End of status report
[свернуть]

Файл CUE

REM GENRE Rock
REM DATE 1975
REM DISCID 6D088708
REM COMMENT "ExactAudioCopy v0.99pb5"
PERFORMER "Electric Light Orchestra"
TITLE "Face The Music"
FILE "Electric Light Orchestra - Face The Music.flac" WAVE
TRACK 01 AUDIO
TITLE "Fire On High"
PERFORMER "Electric Light Orchestra"
INDEX 01 00:00:00
TRACK 02 AUDIO
TITLE "Waterfall"
PERFORMER "Electric Light Orchestra"
INDEX 00 05:31:27
INDEX 01 05:35:27
TRACK 03 AUDIO
TITLE "Evil Woman"
PERFORMER "Electric Light Orchestra"
INDEX 01 09:46:30
TRACK 04 AUDIO
TITLE "Nightrider"
PERFORMER "Electric Light Orchestra"
INDEX 00 14:20:50
INDEX 01 14:21:15
TRACK 05 AUDIO
TITLE "Poker"
PERFORMER "Electric Light Orchestra"
INDEX 00 18:43:25
INDEX 01 18:43:57
TRACK 06 AUDIO
TITLE "Strange Magic"
PERFORMER "Electric Light Orchestra"
INDEX 00 22:14:05
INDEX 01 22:15:15
TRACK 07 AUDIO
TITLE "Down Home Town"
PERFORMER "Electric Light Orchestra"
INDEX 01 26:44:05
TRACK 08 AUDIO
TITLE "One Summer Dream"
PERFORMER "Electric Light Orchestra"
INDEX 01 30:36:60
[свернуть]

Лог проверки качества

AUDIOCHECKER v2.0 beta (build 457) - by Dester -
~~~~~~~~~~~~~~~~~~~~~~~~~~~~~~~~~~
-=== НЕ РЕДАКТИРУЙТЕ ЭТОТ ФАЙЛ! ===-

Путь: ...\1975 - Face The Music (982648 2)

1 -=- Electric Light Orchestra - Face The Music.flac -=- CDDA (100%)

169336404
[свернуть]

Скачать Electric Light Orchestra - Face the Music



password: sergych
[свернуть]
My opinion of release: 10/10
__________________
TAIFUN.Wings of Soul

Вверх
Пользователь сказал cпасибо:
VladislavUdalov (13.04.2018)
  #2
Старый 12.07.2015, 18:05
sergych
Координатор
Досье
 
Аватар для sergych
Релиз 1975(2006) - Face the Music


1975(2006) - Electric Light Orchestra - Face the Music




Исполнитель/Artist: Electric Light Orchestra
Альбом/Album: Face the Music
Год/Year: 1975
Ремастеринг/Remaster: 2006
Жанр/Genre: Symphonic rock, art rock
Страна/Country: Европа
Рекорд-лейбл/Record label: Sony BMG Music
Номер в каталоге/Catalogue #: 82796942782
Формат/Format: Free Lossless Audio Codec (*.flac)
Качество/Quality: Lossless
Тип рипа/RIP Type: image+.cue
Продолжительность/Length: 00:52:34
Источник/Source: Собственный рип
Размер/Size: 398 MB

Сканы в комплекте

Треклист

01. Fire on High [0:05:31.43]
02. Waterfall [0:04:11.57]
03. Evil Woman [0:04:29.63]
04. Nightrider [0:04:26.12]
05. Poker [0:03:32.36]
06. Strange Magic [0:04:29.47]
07. Down Home Town [0:03:54.64]
08. One Summer Dream [0:05:51.01]

Bonus tracks
09. Fire on High Intro [Early Alternative Mix] [0:03:23.23]
10. Evil Woman [Stripped Down Mix] [0:05:00.13]
11. Strange Magic [U.S. Single Edit] [0:03:27.63]
12. Waterfall [Instrumental Mix] [0:04:15.12]
[свернуть]

youtube.com

[свернуть]

Исполнители/Performers

Jeff Lynne – lead vocals, guitars, producer
Bev Bevan – drums, percussion, spoken intro (backwards), backing vocals
Richard Tandy – piano, clavinet, moog, guitar, Wurlitzer electric piano, tack piano
Kelly Groucutt – vocals, bass, backing vocals
Mik Kaminski – violin
Hugh McDowell – cello
Melvyn Gale – cello

Additional personnel
Ellie Greenwich – uncredited vocals
Susan Collins – uncredited vocals
Nancy O'Neill – uncredited vocals
Margaret Raymond – uncredited vocals
Mack – Engineer
Jeff Lynne, Richard Tandy and Louis Clark – Orchestra and choral arrangements
Orchestra conducted by Louis Clark
Although Greenwich, Collins, O'Neill and Raymond are not credited as vocalists, the liner notes indicated 'special thanks' to them
[свернуть]

EAC лог

Exact Audio Copy V1.0 beta 3 from 29. August 2011

EAC extraction logfile from 12. July 2015, 0:39

Electric Light Orchestra / Face the Music

Used drive : ATAPI iHAS124 D Adapter: 0 ID: 2

Read mode : Secure
Utilize accurate stream : Yes
Defeat audio cache : Yes
Make use of C2 pointers : No

Read offset correction : 6
Overread into Lead-In and Lead-Out : No
Fill up missing offset samples with silence : Yes
Delete leading and trailing silent blocks : No
Null samples used in CRC calculations : Yes
Used interface : Installed external ASPI interface

Used output format : User Defined Encoder
Selected bitrate : 1024 kBit/s
Quality : High
Add ID3 tag : No
Command line compressor : C:\Program Files (x86)\Exact Audio Copy\Flac\flac.exe
Additional command line options : -6 -V -T "ARTIST=%artist%" -T "TITLE=%title%" -T "ALBUM=%albumtitle%" -T "DATE=%year%" -T "TRACKNUMBER=%tracknr%" -T "GENRE=%genre%" -T "COMMENT=%comment%" -T "BAND=%albuminterpret%" -T "COMPOSER=%composer%" %haslyrics%--tag-from-file=LYRICS="%lyricsfile%"%haslyrics% -T "DISCNUMBER=%cdnumber%" -T "TOTALDISCS=%totalcds%" -T "TOTALTRACKS=%numtracks%" %hascover%--picture="%coverfile%"%hascover% %source% -o %dest%


TOC of the extracted CD

Track | Start | Length | Start sector | End sector
---------------------------------------------------------
1 | 0:00.00 | 5:31.43 | 0 | 24867
2 | 5:31.43 | 4:11.57 | 24868 | 43749
3 | 9:43.25 | 4:29.63 | 43750 | 63987
4 | 14:13.13 | 4:26.12 | 63988 | 83949
5 | 18:39.25 | 3:32.36 | 83950 | 99885
6 | 22:11.61 | 4:29.47 | 99886 | 120107
7 | 26:41.33 | 3:54.64 | 120108 | 137721
8 | 30:36.22 | 5:51.01 | 137722 | 164047
9 | 36:27.23 | 3:23.23 | 164048 | 179295
10 | 39:50.46 | 5:00.13 | 179296 | 201808
11 | 44:50.59 | 3:27.63 | 201809 | 217396
12 | 48:18.47 | 4:15.12 | 217397 | 236533


Range status and errors

Selected range

Filename C:\mm\Electric Light Orchestra\1975(2006) - Face The Music [82796942782]\Electric Light Orchestra - Face the Music.wav

Peak level 100.0 %
Extraction speed 3.2 X
Range quality 100.0 %
Test CRC 8329A637
Copy CRC 8329A637
Copy OK

No errors occurred


AccurateRip summary

Track 1 accurately ripped (confidence 54) [C436E66F] (AR v2)
Track 2 accurately ripped (confidence 55) [FF76DDBC] (AR v2)
Track 3 accurately ripped (confidence 55) [276AD7BD] (AR v2)
Track 4 accurately ripped (confidence 55) [6DA94902] (AR v2)
Track 5 accurately ripped (confidence 54) [433E918D] (AR v2)
Track 6 accurately ripped (confidence 55) [F6330861] (AR v2)
Track 7 accurately ripped (confidence 54) [D0B1C237] (AR v2)
Track 8 accurately ripped (confidence 55) [6BA80F53] (AR v2)
Track 9 accurately ripped (confidence 53) [FE9E9BFD] (AR v2)
Track 10 accurately ripped (confidence 54) [8CB4E8E9] (AR v2)
Track 11 accurately ripped (confidence 55) [ADDD5455] (AR v2)
Track 12 accurately ripped (confidence 54) [6BBEF584] (AR v2)

All tracks accurately ripped

End of status report
[свернуть]

Файл CUE

REM GENRE Rock
REM DATE 2006
REM DISCID 9E0C510C
REM COMMENT "ExactAudioCopy v1.0b3"
PERFORMER "Electric Light Orchestra"
TITLE "Face the Music"
FILE "Electric Light Orchestra - Face the Music.flac" WAVE
TRACK 01 AUDIO
TITLE "Fire on High"
PERFORMER "Electric Light Orchestra"
INDEX 01 00:00:00
TRACK 02 AUDIO
TITLE "Waterfall"
PERFORMER "Electric Light Orchestra"
INDEX 01 05:31:43
TRACK 03 AUDIO
TITLE "Evil Woman"
PERFORMER "Electric Light Orchestra"
INDEX 01 09:43:25
TRACK 04 AUDIO
TITLE "Nightrider"
PERFORMER "Electric Light Orchestra"
INDEX 01 14:13:13
TRACK 05 AUDIO
TITLE "Poker"
PERFORMER "Electric Light Orchestra"
INDEX 01 18:39:25
TRACK 06 AUDIO
TITLE "Strange Magic"
PERFORMER "Electric Light Orchestra"
INDEX 01 22:11:61
TRACK 07 AUDIO
TITLE "Down Home Town"
PERFORMER "Electric Light Orchestra"
INDEX 01 26:41:33
TRACK 08 AUDIO
TITLE "One Summer Dream"
PERFORMER "Electric Light Orchestra"
INDEX 01 30:36:22
TRACK 09 AUDIO
TITLE "Fire on High Intro [Early Alternative Mix]"
PERFORMER "Electric Light Orchestra"
INDEX 00 36:22:41
INDEX 01 36:27:23
TRACK 10 AUDIO
TITLE "Evil Woman [Stripped Down Mix]"
PERFORMER "Electric Light Orchestra"
INDEX 00 39:47:64
INDEX 01 39:50:46
TRACK 11 AUDIO
TITLE "Strange Magic [U.S. Single Edit]"
PERFORMER "Electric Light Orchestra"
INDEX 00 44:48:02
INDEX 01 44:50:59
TRACK 12 AUDIO
TITLE "Waterfall [Instrumental Mix]"
PERFORMER "Electric Light Orchestra"
INDEX 00 48:15:65
INDEX 01 48:18:47
[свернуть]

Лог проверки качества

AUDIOCHECKER v2.0 beta (build 457) - by Dester -
~~~~~~~~~~~~~~~~~~~~~~~~~~~~~~~~~~
-=== НЕ РЕДАКТИРУЙТЕ ЭТОТ ФАЙЛ! ===-

Путь: ...\1975(2006) - Face The Music [82796942782]

1 -=- Electric Light Orchestra - Face the Music.flac -=- CDDA (100%)

202890836
[свернуть]

Спектр частот

[свернуть]

Скачать Electric Light Orchestra - Face the Music



password: sergych
[свернуть]
My opinion of release: 10/10
__________________
TAIFUN.Wings of Soul

Вверх
Пользователь сказал cпасибо:
VladislavUdalov (13.04.2018)
Похожие темы
Тема Автор Раздел Ответов Последнее сообщение
Альбом Electric Light Orchestra - Time sergych Progressive Rock 1 13.07.2015 20:58
Альбом Electric Light Orchestra - On the Third Day sergych Progressive Rock 1 12.07.2015 16:05
Альбом Electric Light Orchestra - Discovery sergych Progressive Rock 1 20.10.2013 09:52
Альбом Electric Light Orchestra - ELO 2 Afula Progressive Rock 1 19.10.2013 21:57


Метки
1975 , art rock , electric light orchestra , elo , face the music , symphonic rock

Опции темы

Ваши права в разделе
Вы не можете создавать новые темы
Вы не можете отвечать в темах
Вы не можете прикреплять вложения
Вы не можете редактировать свои сообщения

Быстрый переход



Текущее время: 14:01. Часовой пояс GMT +3.
Powered by vBulletin® Version 3.8.10
Copyright ©2000 - 2018, vBulletin Solutions, Inc. Перевод: zCarot
© 2008 - 2018 Taifun With Song
Яндекс.Метрика