TAIFUN With Song
Навигация
Вернуться   TAIFUN With Song > Music (обменник) > Rock > Progressive Rock
Расширенный поиск
Progressive Rock Единственной универсальной характеристикой прогрессивного рока является усложнение музыкальной формы. Это проявляется в удлиннении и усложнении музыкальных пьес, тяготении к циклическим формам академической музыки; расширении репертуара используемых тембров, усложнении метра и ритма, использовании нетрадиционных для рока мелодических и гармонических решений; поэзии, уходящей от тем развлекательной музыки и тяготеющей к философским «вечным темам», фантастической и фентезийной тематике; переплетении с классической и современной академической музыкой, джазом.

А знаете ли Вы, что...
Какой музыкант однажды спел о том, что забыл слова этой песни?
«Однажды на концерте во Франции солист исландской группы Sigur Rós Йонси забыл текст песни. Не остановившись, он сымпровизировал под ту же музыку: «Чёрт, я забыл слова. Но это ничего. Потому что я во Франции, где никто не поймёт».»
 
Опции темы

  #1
Старый 20.10.2013, 12:17
sergych
Координатор
Досье
 
Аватар для sergych
Релиз


1981(1987) - Time




Исполнитель/Artist: Electric Light Orchestra
Альбом/Album: Time
Год/Year: 1981
Ремастеринг/Remaster: 1987
Жанр/Genre: Synthrock, electronica, art rock, progressive rock
Страна/Country: Австрия
Рекорд-лейбл/Record label: CBS Records
Номер в каталоге/Catalogue #: EPC 460212 2 / 5099746021221
Формат/Format: Free Lossless Audio Codec (*.flac)
Качество/Quality: Lossless
Тип рипа/RIP Type: image+.cue
Продолжительность/Length: 00:44:01
Источник/Source: Из интернета
Размер/Size: 299 MB

Сканы в комплекте

Треклист

01 - Prologue
02 - Twilight
03 - Yours Truly, 2095
04 - Ticket To The Moon
05 - The Way Life's Meant To Be
06 - Another Heart Breaks
07 - Rain Is Falling
08 - From The End Of The World
09 - The Lights Go Down
10 - Here Is The News
11 - 21st Century Man
12 - Hold On Tight
13 - Epilogue
[свернуть]

youtube.com

[свернуть]

Исполнители/Performers

Jeff Lynne – lead and backing vocals, electric and acoustic guitars, piano, synthesizer, production
Bev Bevan – drums, percussion
Richard Tandy – acoustic and electric pianos, synthesizer, guitar
Kelly Groucutt – bass guitar, backing vocals
[свернуть]

EAC лог

Exact Audio Copy V0.99 prebeta 5 from 4. May 2009

EAC extraction logfile from 25. September 2010, 10:39

Electric Light Orchestra / Time

Used drive : HL-DT-STDVDRAM_GSA-T20N Adapter: 0 ID: 0

Read mode : Secure
Utilize accurate stream : Yes
Defeat audio cache : Yes
Make use of C2 pointers : No

Read offset correction : 667
Overread into Lead-In and Lead-Out : No
Fill up missing offset samples with silence : Yes
Delete leading and trailing silent blocks : No
Null samples used in CRC calculations : Yes
Used interface : Native Win32 interface for Win NT & 2000

Used output format : User Defined Encoder
Selected bitrate : 320 kBit/s
Quality : High
Add ID3 tag : No
Command line compressor : C:\Program Files\Exact Audio Copy\Flac\flac.exe
Additional command line options : -8 -V %s


TOC of the extracted CD

Track | Start | Length | Start sector | End sector
---------------------------------------------------------
1 | 0:00.00 | 1:15.67 | 0 | 5691
2 | 1:15.67 | 3:42.05 | 5692 | 22346
3 | 4:57.72 | 3:12.03 | 22347 | 36749
4 | 8:10.00 | 4:07.15 | 36750 | 55289
5 | 12:17.15 | 4:38.70 | 55290 | 76209
6 | 16:56.10 | 3:48.10 | 76210 | 93319
7 | 20:44.20 | 3:54.55 | 93320 | 110924
8 | 24:39.00 | 3:16.45 | 110925 | 125669
9 | 27:55.45 | 3:33.32 | 125670 | 141676
10 | 31:29.02 | 3:45.33 | 141677 | 158584
11 | 35:14.35 | 4:08.62 | 158585 | 177246
12 | 39:23.22 | 3:06.30 | 177247 | 191226
13 | 42:29.52 | 1:31.35 | 191227 | 198086


Range status and errors

Selected range

Filename C:\Music\Electric Light Orchestra - Time.wav

Peak level 100.0 %
Range quality 100.0 %
Test CRC 52811E2A
Copy CRC 52811E2A
Copy OK

No errors occurred


AccurateRip summary

Track 1 accurately ripped (confidence 81) [14FDE5D2]
Track 2 accurately ripped (confidence 80) [1DBB9775]
Track 3 accurately ripped (confidence 80) [D95DC32F]
Track 4 accurately ripped (confidence 81) [59177FB8]
Track 5 accurately ripped (confidence 80) [4727F1C2]
Track 6 accurately ripped (confidence 79) [49E430FA]
Track 7 accurately ripped (confidence 79) [6B061BED]
Track 8 accurately ripped (confidence 79) [D4A9C499]
Track 9 accurately ripped (confidence 79) [4BA002F5]
Track 10 accurately ripped (confidence 80) [39AF169B]
Track 11 accurately ripped (confidence 79) [6EEA3938]
Track 12 accurately ripped (confidence 80) [8199EFCB]
Track 13 accurately ripped (confidence 77) [49A496FC]

All tracks accurately ripped

End of status report
[свернуть]

Файл CUE

REM GENRE Rock
REM DATE 1981
REM DISCID BA0A510D
REM COMMENT "ExactAudioCopy v0.99pb5"
PERFORMER "Electric Light Orchestra"
TITLE "Time"
FILE "Electric Light Orchestra - Time.flac" WAVE
TRACK 01 AUDIO
TITLE "Prologue"
PERFORMER "Electric Light Orchestra"
INDEX 01 00:00:00
TRACK 02 AUDIO
TITLE "Twilight"
PERFORMER "Electric Light Orchestra"
INDEX 01 01:15:67
TRACK 03 AUDIO
TITLE "Yours Truly, 2095"
PERFORMER "Electric Light Orchestra"
INDEX 01 04:57:72
TRACK 04 AUDIO
TITLE "Ticket To The Moon"
PERFORMER "Electric Light Orchestra"
INDEX 00 08:08:67
INDEX 01 08:10:00
TRACK 05 AUDIO
TITLE "The Way Life's Meant To Be"
PERFORMER "Electric Light Orchestra"
INDEX 01 12:17:15
TRACK 06 AUDIO
TITLE "Another Heart Breaks"
PERFORMER "Electric Light Orchestra"
INDEX 01 16:56:10
TRACK 07 AUDIO
TITLE "Rain Is Falling"
PERFORMER "Electric Light Orchestra"
INDEX 01 20:44:20
TRACK 08 AUDIO
TITLE "From The End Of The World"
PERFORMER "Electric Light Orchestra"
INDEX 01 24:39:00
TRACK 09 AUDIO
TITLE "The Lights Go Down"
PERFORMER "Electric Light Orchestra"
INDEX 01 27:55:45
TRACK 10 AUDIO
TITLE "Here Is The News"
PERFORMER "Electric Light Orchestra"
INDEX 01 31:29:02
TRACK 11 AUDIO
TITLE "21st Century Man"
PERFORMER "Electric Light Orchestra"
INDEX 01 35:14:35
TRACK 12 AUDIO
TITLE "Hold On Tight"
PERFORMER "Electric Light Orchestra"
INDEX 00 39:22:02
INDEX 01 39:23:22
TRACK 13 AUDIO
TITLE "Epilogue"
PERFORMER "Electric Light Orchestra"
INDEX 01 42:29:52
[свернуть]

Лог проверки качества

AUDIOCHECKER v2.0 beta (build 457) - by Dester -
~~~~~~~~~~~~~~~~~~~~~~~~~~~~~~~~~~
-=== НЕ РЕДАКТИРУЙТЕ ЭТОТ ФАЙЛ! ===-

Путь: ...\1981 - Time (EPC 460212 2)

1 -=- Electric Light Orchestra - Time.flac -=- CDDA (100%)

99973156
[свернуть]

Скачать Electric Light Orchestra - Time



password: sergych
[свернуть]
My opinion of release: 10/10
__________________
TAIFUN.Wings of Soul


Последний раз редактировалось sergych, 11.07.2015 в 21:39. Причина: чистка сдохшего
Вверх
Пользователь сказал cпасибо:
VladislavUdalov (26.09.2017)
  #2
Старый 13.07.2015, 19:58
sergych
Координатор
Досье
 
Аватар для sergych
Релиз 1981(2001) - Electric Light Orchestra - Time


1981(2001) - Electric Light Orchestra - Time




Исполнитель/Artist: Electric Light Orchestra
Альбом/Album: Time
Год/Year: 1981
Ремастеринг/Remaster: 2001
Жанр/Genre: Synthrock, electronica, art rock, progressive rock
Страна/Country: Австрия
Рекорд-лейбл/Record label: Sony Music
Номер в каталоге/Catalogue #: 501906 2
Формат/Format: Free Lossless Audio Codec (*.flac)
Качество/Quality: Lossless
Тип рипа/RIP Type: image+.cue
Продолжительность/Length: 00:54:37
Источник/Source: Собственный рип
Размер/Size: 415.4 MB

Сканы в комплекте

Треклист

01. Prologue [0:01:16.35]
02. Twilight [0:03:41.65]
03. Yours Truly, 2095 [0:03:11.62]
04. Ticket To The Moon [0:04:07.25]
05. The Way Life's Meant To Be [0:04:38.55]
06. Another Heart Breaks [0:03:49.28]
07. Rain Is Falling [0:03:55.50]
08. From The End Of The World [0:03:16.47]
09. The Lights Go Down [0:03:33.35]
10. Here Is The News [0:03:49.55]
11. 21st Century Man [0:04:02.70]
12. Hold On Tight [0:03:06.30]
13. Epilogue [0:01:35.65]

Bonus tracks
14. The Bouncer [0:03:14.50]
15. When Time Stood Still [0:03:33.00]
16. Julie Don't Live Here [0:03:42.20]
[свернуть]

youtube.com

[свернуть]

Исполнители/Performers

Jeff Lynne – lead and backing vocals, electric and acoustic guitars, piano, synthesizers, vocoder, production
Bev Bevan – drums, percussion
Richard Tandy – acoustic and electric pianos, synthesizers, vocoder, guitars
Kelly Groucutt – bass guitar, backing vocals
[свернуть]

EAC лог

Exact Audio Copy V1.0 beta 3 from 29. August 2011

EAC extraction logfile from 11. July 2015, 21:52

Electric Light Orchestra / Time

Used drive : ATAPI iHAS124 D Adapter: 0 ID: 2

Read mode : Secure
Utilize accurate stream : Yes
Defeat audio cache : Yes
Make use of C2 pointers : No

Read offset correction : 6
Overread into Lead-In and Lead-Out : No
Fill up missing offset samples with silence : Yes
Delete leading and trailing silent blocks : No
Null samples used in CRC calculations : Yes
Used interface : Installed external ASPI interface

Used output format : User Defined Encoder
Selected bitrate : 1024 kBit/s
Quality : High
Add ID3 tag : No
Command line compressor : C:\Program Files (x86)\Exact Audio Copy\Flac\flac.exe
Additional command line options : -6 -V -T "ARTIST=%artist%" -T "TITLE=%title%" -T "ALBUM=%albumtitle%" -T "DATE=%year%" -T "TRACKNUMBER=%tracknr%" -T "GENRE=%genre%" -T "COMMENT=%comment%" -T "BAND=%albuminterpret%" -T "COMPOSER=%composer%" %haslyrics%--tag-from-file=LYRICS="%lyricsfile%"%haslyrics% -T "DISCNUMBER=%cdnumber%" -T "TOTALDISCS=%totalcds%" -T "TOTALTRACKS=%numtracks%" %hascover%--picture="%coverfile%"%hascover% %source% -o %dest%


TOC of the extracted CD

Track | Start | Length | Start sector | End sector
---------------------------------------------------------
1 | 0:00.00 | 1:16.35 | 0 | 5734
2 | 1:16.35 | 3:41.65 | 5735 | 22374
3 | 4:58.25 | 3:11.62 | 22375 | 36761
4 | 8:10.12 | 4:07.25 | 36762 | 55311
5 | 12:17.37 | 4:38.55 | 55312 | 76216
6 | 16:56.17 | 3:49.28 | 76217 | 93419
7 | 20:45.45 | 3:55.50 | 93420 | 111094
8 | 24:41.20 | 3:16.47 | 111095 | 125841
9 | 27:57.67 | 3:33.35 | 125842 | 141851
10 | 31:31.27 | 3:49.55 | 141852 | 159081
11 | 35:21.07 | 4:02.70 | 159082 | 177301
12 | 39:24.02 | 3:06.30 | 177302 | 191281
13 | 42:30.32 | 1:35.65 | 191282 | 198471
14 | 44:06.22 | 3:14.50 | 198472 | 213071
15 | 47:20.72 | 3:33.00 | 213072 | 229046
16 | 50:53.72 | 3:42.20 | 229047 | 245716


Range status and errors

Selected range

Filename C:\mm\Electric Light Orchestra\1981(2001) - Time [501906 2]\Electric Light Orchestra - Time.wav

Peak level 100.0 %
Extraction speed 8.8 X
Range quality 100.0 %
Test CRC 06D32FB4
Copy CRC 06D32FB4
Copy OK

No errors occurred


AccurateRip summary

Track 1 accurately ripped (confidence 155) [CDAA6612] (AR v2)
Track 2 accurately ripped (confidence 153) [FCDE619F] (AR v2)
Track 3 accurately ripped (confidence 153) [BC0617A7] (AR v2)
Track 4 accurately ripped (confidence 152) [F5D41225] (AR v2)
Track 5 accurately ripped (confidence 153) [FA687978] (AR v2)
Track 6 accurately ripped (confidence 152) [D228C369] (AR v2)
Track 7 accurately ripped (confidence 153) [43BC9CD2] (AR v2)
Track 8 accurately ripped (confidence 152) [8647B54F] (AR v2)
Track 9 accurately ripped (confidence 152) [1949352A] (AR v2)
Track 10 accurately ripped (confidence 154) [219363FC] (AR v2)
Track 11 accurately ripped (confidence 153) [F8B1041D] (AR v2)
Track 12 accurately ripped (confidence 151) [EF2D419A] (AR v2)
Track 13 accurately ripped (confidence 152) [667D1BA8] (AR v2)
Track 14 accurately ripped (confidence 151) [1FABCC8B] (AR v2)
Track 15 accurately ripped (confidence 151) [680F0F11] (AR v2)
Track 16 accurately ripped (confidence 152) [6440D179] (AR v2)

All tracks accurately ripped

End of status report
[свернуть]

Файл CUE

REM GENRE Rock
REM DATE 2001
REM DISCID E20CCC10
REM COMMENT "ExactAudioCopy v1.0b3"
PERFORMER "Electric Light Orchestra"
TITLE "Time"
FILE "Electric Light Orchestra - Time.flac" WAVE
TRACK 01 AUDIO
TITLE "Prologue"
PERFORMER "Electric Light Orchestra"
INDEX 01 00:00:00
TRACK 02 AUDIO
TITLE "Twilight"
PERFORMER "Electric Light Orchestra"
INDEX 01 01:16:35
TRACK 03 AUDIO
TITLE "Yours Truly, 2095"
PERFORMER "Electric Light Orchestra"
INDEX 01 04:58:25
TRACK 04 AUDIO
TITLE "Ticket To The Moon"
PERFORMER "Electric Light Orchestra"
INDEX 00 08:09:00
INDEX 01 08:10:12
TRACK 05 AUDIO
TITLE "The Way Life's Meant To Be"
PERFORMER "Electric Light Orchestra"
INDEX 01 12:17:37
TRACK 06 AUDIO
TITLE "Another Heart Breaks"
PERFORMER "Electric Light Orchestra"
INDEX 00 16:56:05
INDEX 01 16:56:17
TRACK 07 AUDIO
TITLE "Rain Is Falling"
PERFORMER "Electric Light Orchestra"
INDEX 00 20:45:27
INDEX 01 20:45:45
TRACK 08 AUDIO
TITLE "From The End Of The World"
PERFORMER "Electric Light Orchestra"
INDEX 01 24:41:20
TRACK 09 AUDIO
TITLE "The Lights Go Down"
PERFORMER "Electric Light Orchestra"
INDEX 01 27:57:67
TRACK 10 AUDIO
TITLE "Here Is The News"
PERFORMER "Electric Light Orchestra"
INDEX 01 31:31:27
TRACK 11 AUDIO
TITLE "21st Century Man"
PERFORMER "Electric Light Orchestra"
INDEX 01 35:21:07
TRACK 12 AUDIO
TITLE "Hold On Tight"
PERFORMER "Electric Light Orchestra"
INDEX 01 39:24:02
TRACK 13 AUDIO
TITLE "Epilogue"
PERFORMER "Electric Light Orchestra"
INDEX 01 42:30:32
TRACK 14 AUDIO
TITLE "The Bouncer (bonus)"
PERFORMER "Electric Light Orchestra"
INDEX 00 44:01:42
INDEX 01 44:06:22
TRACK 15 AUDIO
TITLE "When Time Stood Still (bonus)"
PERFORMER "Electric Light Orchestra"
INDEX 00 47:19:60
INDEX 01 47:20:72
TRACK 16 AUDIO
TITLE "Julie Don't Live Here (bonus)"
PERFORMER "Electric Light Orchestra"
INDEX 00 50:52:57
INDEX 01 50:53:72
[свернуть]

Лог проверки качества

AUDIOCHECKER v2.0 beta (build 457) - by Dester -
~~~~~~~~~~~~~~~~~~~~~~~~~~~~~~~~~~
-=== НЕ РЕДАКТИРУЙТЕ ЭТОТ ФАЙЛ! ===-

Путь: ...\1981(2001) - Time [501906 2]

1 -=- Electric Light Orchestra - Time.flac -=- CDDA (100%)

99973156
[свернуть]

Спектр частот

[свернуть]

Скачать Electric Light Orchestra - Time



password: sergych
[свернуть]
My opinion of release: 10/10
__________________
TAIFUN.Wings of Soul

Вверх
Пользователь сказал cпасибо:
VladislavUdalov (26.09.2017)
Похожие темы
Тема Автор Раздел Ответов Последнее сообщение
Альбом Electric Light Orchestra - ELO 2 Afula Progressive Rock 1 19.10.2013 20:57
Альбом Electric Light Orchestra - No Answer Afula Progressive Rock 1 19.10.2013 20:07


Метки
1981 , 2006 , art rock , electric light orchestra , electronica , elo , progressive rock , rock , synthrock , time

Опции темы

Ваши права в разделе
Вы не можете создавать новые темы
Вы не можете отвечать в темах
Вы не можете прикреплять вложения
Вы не можете редактировать свои сообщения

Быстрый переход



Текущее время: 18:45. Часовой пояс GMT +3.
Powered by vBulletin® Version 3.8.10
Copyright ©2000 - 2018, vBulletin Solutions, Inc. Перевод: zCarot
© 2008 - 2018 Taifun With Song
Яндекс.Метрика