TAIFUN With Song
Навигация
Jazz и Blues Гибкая ритмика, импровизационное начало, гармонии и мелодии - все это Jazz. Blues - жизнеутверждающая музыка, рожденная из душевной боли

А знаете ли Вы, что...
Почему среди китайцев и вьетнамцев больше в процентном отношении людей с абсолютным слухом?
«Большинство диалектов китайского, вьетнамский и некоторые другие языки Азии и Африки являются тональными, то есть один и тот же слог может иметь разные значения в зависимости от высоты произносимого звука. Среди носителей тональных языков отмечается больший процент людей с абсолютным слухом, так как они естественным образом привыкают к различению тонов с раннего детства.»
 
Опции темы

  #1
Старый 17.04.2015, 21:05
sergych
Координатор
Досье
 
Аватар для sergych
Релиз John Pizzarelli - New Standards


1994 - New Standards




Исполнитель/Artist: John Pizzarelli
Альбом/Album: New Standards
Год/Year: 1994
Жанр/Genre: Jazz, Smooth jazz, Funky
Страна/Country: Соединённые Штаты
Рекорд-лейбл/Record label: Novus Records
Номер в каталоге/Catalogue #: 01241 63172-2
Формат/Format: Free Lossless Audio Codec (*.flac)
Качество/Quality: Lossless
Тип рипа/RIP Type: image+.cue
Продолжительность/Length: 00:55:03
Источник/Source: Собственный рип
Размер/Size: 363.3 MB

Сканы в комплекте

Треклист

01. Fools Fall In Love [0:02:54.55]
02. Oh How My Heart Beats For You (Swing) [0:02:47.30]
03. Beautiful Moons Ago [0:03:24.67]
04. I'm Your Guy [0:02:35.33]
05. Come On-A My House [0:02:19.45]
06. Beautiful Maria Of My Soul [0:04:33.20]
07. I Only Want Some [0:06:31.27]
08. I'm Alright Now [0:03:06.40]
09. Just A Skosh [0:04:56.15]
10. Why Do People Fall In Love [0:04:27.60]
11. Hearts Like Mine Are Broken Every Day [0:03:50.05]
12. Better Run Before It's Spring [0:03:57.20]
13. Give Me Your Heart [0:04:38.70]
14. Look At Us [0:03:05.23]
15. Oh How My Heart Beats For You (II) [0:01:54.15]
[свернуть]

youtube.com

[свернуть]

Исполнители/Performers

John Pizzarelli – vocals, guitar
Martin Pizzarelli – double-bass, background vocals
Ray Kennedy – piano, Hammond organ, background vocals

Guest:
Darmon Meader – tenor saxophone, background vocals
Ted Nash – tenor saxophone
Bucky Pizzarelli – guitar
Harvey Estrin – flutes
Glen Estrin – French horn
Joe Cocuzzo – drums
Tony Corbiscello – drums
Richard Centalonza – bass clarinet, flutes, baritone saxophone
Scott Robinson – clarinet, flutes, tenor saxophone
Jack Stuckey – clarinet, flutes
Jim Saporito – vibraphone, other perussions
Dick Lieb – musical arrangement
[свернуть]

EAC лог

Exact Audio Copy V1.0 beta 3 from 29. August 2011

EAC extraction logfile from 17. April 2015, 22:32

John Pizzarelli / New Standards

Used drive : ATAPI iHAS124 D Adapter: 0 ID: 2

Read mode : Secure
Utilize accurate stream : Yes
Defeat audio cache : Yes
Make use of C2 pointers : No

Read offset correction : 6
Overread into Lead-In and Lead-Out : No
Fill up missing offset samples with silence : Yes
Delete leading and trailing silent blocks : No
Null samples used in CRC calculations : Yes
Used interface : Installed external ASPI interface

Used output format : User Defined Encoder
Selected bitrate : 1024 kBit/s
Quality : High
Add ID3 tag : No
Command line compressor : C:\Program Files (x86)\Exact Audio Copy\Flac\flac.exe
Additional command line options : -6 -V -T "ARTIST=%artist%" -T "TITLE=%title%" -T "ALBUM=%albumtitle%" -T "DATE=%year%" -T "TRACKNUMBER=%tracknr%" -T "GENRE=%genre%" -T "COMMENT=%comment%" -T "BAND=%albuminterpret%" -T "COMPOSER=%composer%" %haslyrics%--tag-from-file=LYRICS="%lyricsfile%"%haslyrics% -T "DISCNUMBER=%cdnumber%" -T "TOTALDISCS=%totalcds%" -T "TOTALTRACKS=%numtracks%" %hascover%--picture="%coverfile%"%hascover% %source% -o %dest%


TOC of the extracted CD

Track | Start | Length | Start sector | End sector
---------------------------------------------------------
1 | 0:00.00 | 2:54.55 | 0 | 13104
2 | 2:54.55 | 2:47.30 | 13105 | 25659
3 | 5:42.10 | 3:24.67 | 25660 | 41026
4 | 9:07.02 | 2:35.33 | 41027 | 52684
5 | 11:42.35 | 2:19.45 | 52685 | 63154
6 | 14:02.05 | 4:33.20 | 63155 | 83649
7 | 18:35.25 | 6:31.27 | 83650 | 113001
8 | 25:06.52 | 3:06.40 | 113002 | 126991
9 | 28:13.17 | 4:56.15 | 126992 | 149206
10 | 33:09.32 | 4:27.60 | 149207 | 169291
11 | 37:37.17 | 3:50.05 | 169292 | 186546
12 | 41:27.22 | 3:57.20 | 186547 | 204341
13 | 45:24.42 | 4:38.70 | 204342 | 225261
14 | 50:03.37 | 3:05.23 | 225262 | 239159
15 | 53:08.60 | 1:54.15 | 239160 | 247724


Range status and errors

Selected range

Filename C:\mm\John Pizzarelli\1994 - New Standards [01241 63172-2]\John Pizzarelli - New Standards.wav

Peak level 100.0 %
Extraction speed 8.7 X
Range quality 100.0 %
Test CRC 9181E48F
Copy CRC 9181E48F
Copy OK

No errors occurred


AccurateRip summary

Track 1 accurately ripped (confidence 10) [F2F6470E] (AR v2)
Track 2 accurately ripped (confidence 11) [88B6749E] (AR v2)
Track 3 accurately ripped (confidence 10) [88A68BF4] (AR v2)
Track 4 accurately ripped (confidence 10) [D2A697CF] (AR v2)
Track 5 accurately ripped (confidence 10) [49635CBF] (AR v2)
Track 6 accurately ripped (confidence 11) [3F789D2F] (AR v2)
Track 7 accurately ripped (confidence 10) [77FC5F68] (AR v2)
Track 8 accurately ripped (confidence 10) [463C22E3] (AR v2)
Track 9 accurately ripped (confidence 10) [BE610E4D] (AR v2)
Track 10 accurately ripped (confidence 11) [E5946F5B] (AR v2)
Track 11 accurately ripped (confidence 10) [34EFECE2] (AR v2)
Track 12 accurately ripped (confidence 10) [2A2BE805] (AR v2)
Track 13 accurately ripped (confidence 10) [3A561120] (AR v2)
Track 14 accurately ripped (confidence 10) [EEF698E3] (AR v2)
Track 15 accurately ripped (confidence 10) [D90061F4] (AR v2)

All tracks accurately ripped

End of status report
[свернуть]

Файл CUE

REM GENRE Jazz
REM DATE 1994
REM DISCID D80CE70F
REM COMMENT "ExactAudioCopy v1.0b3"
PERFORMER "John Pizzarelli"
TITLE "New Standards"
FILE "John Pizzarelli - New Standards.flac" WAVE
TRACK 01 AUDIO
TITLE "Fools Fall In Love"
PERFORMER "John Pizzarelli"
INDEX 01 00:00:00
TRACK 02 AUDIO
TITLE "Oh How My Heart Beats For You (Swing)"
PERFORMER "John Pizzarelli"
INDEX 00 02:54:32
INDEX 01 02:54:55
TRACK 03 AUDIO
TITLE "Beautiful Moons Ago"
PERFORMER "John Pizzarelli"
INDEX 00 05:42:05
INDEX 01 05:42:10
TRACK 04 AUDIO
TITLE "I'm Your Guy"
PERFORMER "John Pizzarelli"
INDEX 00 09:06:22
INDEX 01 09:07:02
TRACK 05 AUDIO
TITLE "Come On-A My House"
PERFORMER "John Pizzarelli"
INDEX 00 11:42:12
INDEX 01 11:42:35
TRACK 06 AUDIO
TITLE "Beautiful Maria Of My Soul"
PERFORMER "John Pizzarelli"
INDEX 00 14:01:22
INDEX 01 14:02:05
TRACK 07 AUDIO
TITLE "I Only Want Some"
PERFORMER "John Pizzarelli"
INDEX 00 18:34:22
INDEX 01 18:35:25
TRACK 08 AUDIO
TITLE "I'm Alright Now"
PERFORMER "John Pizzarelli"
INDEX 00 25:05:45
INDEX 01 25:06:52
TRACK 09 AUDIO
TITLE "Just A Skosh"
PERFORMER "John Pizzarelli"
INDEX 00 28:13:00
INDEX 01 28:13:17
TRACK 10 AUDIO
TITLE "Why Do People Fall In Love"
PERFORMER "John Pizzarelli"
INDEX 00 33:08:45
INDEX 01 33:09:32
TRACK 11 AUDIO
TITLE "Hearts Like Mine Are Broken Every Day"
PERFORMER "John Pizzarelli"
INDEX 00 37:36:32
INDEX 01 37:37:17
TRACK 12 AUDIO
TITLE "Better Run Before It's Spring"
PERFORMER "John Pizzarelli"
INDEX 00 41:26:02
INDEX 01 41:27:22
TRACK 13 AUDIO
TITLE "Give Me Your Heart"
PERFORMER "John Pizzarelli"
INDEX 00 45:23:60
INDEX 01 45:24:42
TRACK 14 AUDIO
TITLE "Look At Us"
PERFORMER "John Pizzarelli"
INDEX 00 50:02:40
INDEX 01 50:03:37
TRACK 15 AUDIO
TITLE "Oh How My Heart Beats For You (II)"
PERFORMER "John Pizzarelli"
INDEX 00 53:08:30
INDEX 01 53:08:60
[свернуть]

Лог проверки качества

AUDIOCHECKER v2.0 beta (build 457) - by Dester -
~~~~~~~~~~~~~~~~~~~~~~~~~~~~~~~~~~
-=== НЕ РЕДАКТИРУЙТЕ ЭТОТ ФАЙЛ! ===-

Путь: ...\1994 - New Standards [01241 63172-2]

1 -=- John Pizzarelli - New Standards.flac -=- CDDA (99%)

219153764
[свернуть]

Спектр частот

[свернуть]

Скачать John Pizzarelli - New Standards



password: sergych
[свернуть]
My opinion of release: 10/10
__________________
TAIFUN.Wings of Soul

Вверх
Пользователь сказал cпасибо:
johnsilver (15.05.2017)
Похожие темы
Тема Автор Раздел Ответов Последнее сообщение
Сборник John Pizzarelli - The Best of John Pizzarelli. I Like Jersey Best sergych Jazz и Blues 0 16.10.2013 20:40
Альбом John Pizzarelli - Kisses In The Rain sergych Jazz и Blues 0 16.10.2013 19:41
Альбом John Pizzarelli - P.S. Mr.Cole sergych Jazz и Blues 2 24.12.2010 20:35


Метки
1994 , jazz , john pizzarelli , new standards , pop rock , swing

Опции темы

Ваши права в разделе
Вы не можете создавать новые темы
Вы не можете отвечать в темах
Вы не можете прикреплять вложения
Вы не можете редактировать свои сообщения

Быстрый переход



Текущее время: 10:54. Часовой пояс GMT +3.
Powered by vBulletin® Version 3.8.10
Copyright ©2000 - 2018, vBulletin Solutions, Inc. Перевод: zCarot
© 2008 - 2018 Taifun With Song
Яндекс.Метрика