TAIFUN With Song
Навигация
Вернуться   TAIFUN With Song > Music (обменник) > Другие направления музыки > Шансон
Расширенный поиск
Шансон Городской шансон, барды, и т.п.

А знаете ли Вы, что...
Кто написал песню «Во поле берёза стояла»?
«Многие источники утверждают, что песню «Во поле берёза стояла» написал татарский поэт Нигмат Ибрагимов. Однако эта песня всё-таки является русской народной.»
 
Опции темы

  #1
Старый 29.01.2014, 18:53
sergych
Координатор
Досье
 
Аватар для sergych
Релиз А.Иващенко, Г.Васильев - Российские барды, том 8


2010 - А.Иващенко, Г.Васильев - Российские барды, том 8




Исполнитель/Artist: А.Иващенко и Г.Васильев
Альбом/Album: Российские барды, том 8
Год/Year: 2010
Жанр/Genre: Авторская песня
Страна/Country: Россия
Рекорд-лейбл/Record label: Moroz Records
Номер в каталоге/Catalogue #: MR 008 CD
Формат/Format: Free Lossless Audio Codec (*.flac)
Качество/Quality: Lossless
Тип рипа/RIP Type: image+.cue
Продолжительность/Length: 01:13:32
Источник/Source: Собственный рип
Размер/Size: 436 MB

Сканы в комплекте

Треклист

01. Баланда о селёдке [0:02:46.31]
02. Песня о том, как мы строили навес на даче Евгения Иваныча [0:02:52.26]
03. Ума палата [0:03:31.12]
04. Дворник Степанов [0:02:36.29]
05. Метрополитен [0:02:56.51]
06. Ну, вот и всё [0:02:01.65]
07. Сказание о новых временах в селе Непутёвка [0:05:59.64]
08. Шипучее вино [0:02:55.42]
09. Трояк [0:02:13.40]
10. Кончается четверг [0:03:34.04]
11. На киевском вокзале [0:02:13.44]
12. Дурь [0:02:44.50]
13. Пикник в "Заветах Ильича" [0:02:45.05]
14. Бом тили бом [0:01:39.04]
15. Бережкарики [0:02:43.71]
16. Приходи ко мне, Глафира [0:02:18.03]
17. Дождь над Иссык-Кулем [0:02:23.50]
18. Девятый вал [0:01:29.40]
19. Мой милый [0:03:18.06]
20. Мне подняли зарплату [0:02:39.32]
21. Ах, время, время [0:02:47.53]
22. Ох, не велит народный опыт [0:03:18.16]
23. Февраль [0:02:13.26]
24. Кладут асфальт [0:04:08.43]
25. Альма-Матерь [0:02:23.17]
26. Пора по пиву [0:02:58.22]
[свернуть]

youtube.com

[свернуть]

Исполнители/Performers

Алексей Иващенко
Георгий Васильев
[свернуть]

EAC лог

Exact Audio Copy V1.0 beta 3 from 29. August 2011

EAC extraction logfile from 29. January 2014, 20:17

А.Иващенко, Г.Васильев / Российские барды, том 8

Used drive : ATAPI iHAS124 D Adapter: 0 ID: 2

Read mode : Secure
Utilize accurate stream : Yes
Defeat audio cache : Yes
Make use of C2 pointers : Yes

Read offset correction : 6
Overread into Lead-In and Lead-Out : No
Fill up missing offset samples with silence : Yes
Delete leading and trailing silent blocks : No
Null samples used in CRC calculations : Yes
Used interface : Installed external ASPI interface

Used output format : User Defined Encoder
Selected bitrate : 1024 kBit/s
Quality : High
Add ID3 tag : No
Command line compressor : C:\Program Files (x86)\Exact Audio Copy\Flac\flac.exe
Additional command line options : -6 -V -T "ARTIST=%artist%" -T "TITLE=%title%" -T "ALBUM=%albumtitle%" -T "DATE=%year%" -T "TRACKNUMBER=%tracknr%" -T "GENRE=%genre%" -T "COMMENT=%comment%" -T "BAND=%albuminterpret%" -T "COMPOSER=%composer%" %haslyrics%--tag-from-file=LYRICS="%lyricsfile%"%haslyrics% -T "DISCNUMBER=%cdnumber%" -T "TOTALDISCS=%totalcds%" -T "TOTALTRACKS=%numtracks%" %hascover%--picture="%coverfile%"%hascover% %source% -o %dest%


TOC of the extracted CD

Track | Start | Length | Start sector | End sector
---------------------------------------------------------
1 | 0:00.00 | 2:46.31 | 0 | 12480
2 | 2:46.31 | 2:52.26 | 12481 | 25406
3 | 5:38.57 | 3:31.12 | 25407 | 41243
4 | 9:09.69 | 2:36.29 | 41244 | 52972
5 | 11:46.23 | 2:56.51 | 52973 | 66223
6 | 14:42.74 | 2:01.65 | 66224 | 75363
7 | 16:44.64 | 5:59.64 | 75364 | 102352
8 | 22:44.53 | 2:55.42 | 102353 | 115519
9 | 25:40.20 | 2:13.40 | 115520 | 125534
10 | 27:53.60 | 3:34.04 | 125535 | 141588
11 | 31:27.64 | 2:13.44 | 141589 | 151607
12 | 33:41.33 | 2:44.50 | 151608 | 163957
13 | 36:26.08 | 2:45.05 | 163958 | 176337
14 | 39:11.13 | 1:39.04 | 176338 | 183766
15 | 40:50.17 | 2:43.71 | 183767 | 196062
16 | 43:34.13 | 2:18.03 | 196063 | 206415
17 | 45:52.16 | 2:23.50 | 206416 | 217190
18 | 48:15.66 | 1:29.40 | 217191 | 223905
19 | 49:45.31 | 3:18.06 | 223906 | 238761
20 | 53:03.37 | 2:39.32 | 238762 | 250718
21 | 55:42.69 | 2:47.53 | 250719 | 263296
22 | 58:30.47 | 3:18.16 | 263297 | 278162
23 | 61:48.63 | 2:13.26 | 278163 | 288163
24 | 64:02.14 | 4:08.43 | 288164 | 306806
25 | 68:10.57 | 2:23.17 | 306807 | 317548
26 | 70:33.74 | 2:58.22 | 317549 | 330920


Range status and errors

Selected range

Filename C:\mm\ИВАСИ\2010 - Российские барды, том 8 [MR 008 CD]\А.Иващенко, Г.Васильев - Российские барды, том 8.wav

Peak level 99.3 %
Extraction speed 5.2 X
Range quality 99.9 %
Test CRC 00D11BB6
Copy CRC 00D11BB6
Copy OK

No errors occurred


AccurateRip summary

Track 1 accurately ripped (confidence 5) [3835B40D] (AR v1)
Track 2 accurately ripped (confidence 5) [FC03D22E] (AR v1)
Track 3 accurately ripped (confidence 5) [20D3DB22] (AR v1)
Track 4 accurately ripped (confidence 5) [03F06EEE] (AR v1)
Track 5 accurately ripped (confidence 5) [3A92DDE3] (AR v1)
Track 6 accurately ripped (confidence 5) [3E5EF925] (AR v1)
Track 7 accurately ripped (confidence 5) [2C61212E] (AR v1)
Track 8 accurately ripped (confidence 5) [6890053B] (AR v1)
Track 9 accurately ripped (confidence 5) [30B6304D] (AR v1)
Track 10 accurately ripped (confidence 5) [341092EC] (AR v1)
Track 11 accurately ripped (confidence 5) [9C99497F] (AR v1)
Track 12 accurately ripped (confidence 5) [E31AD069] (AR v1)
Track 13 accurately ripped (confidence 5) [8852F46A] (AR v1)
Track 14 accurately ripped (confidence 5) [85400D22] (AR v1)
Track 15 accurately ripped (confidence 5) [18FDA5ED] (AR v1)
Track 16 accurately ripped (confidence 5) [2177ACDD] (AR v1)
Track 17 accurately ripped (confidence 5) [A112D21C] (AR v1)
Track 18 accurately ripped (confidence 5) [C8FD71C0] (AR v1)
Track 19 accurately ripped (confidence 5) [3CBC5E84] (AR v1)
Track 20 accurately ripped (confidence 5) [129984B0] (AR v1)
Track 21 accurately ripped (confidence 5) [BCE4D3C8] (AR v1)
Track 22 accurately ripped (confidence 5) [F1916FED] (AR v1)
Track 23 accurately ripped (confidence 5) [DD2DA321] (AR v1)
Track 24 accurately ripped (confidence 5) [DF6BA8B9] (AR v1)
Track 25 accurately ripped (confidence 5) [75829855] (AR v1)
Track 26 accurately ripped (confidence 5) [09C200AC] (AR v1)

All tracks accurately ripped

End of status report
[свернуть]

Файл CUE

REM GENRE Ballad
REM DATE 2010
REM DISCID 85113C1A
REM COMMENT "ExactAudioCopy v1.0b3"
PERFORMER "А.Иващенко, Г.Васильев"
TITLE "Российские барды, том 8"
FILE "А.Иващенко, Г.Васильев - Российские барды, том 8.flac" WAVE
TRACK 01 AUDIO
TITLE "Баланда о селёдке"
PERFORMER "А.Иващенко, Г.Васильев"
INDEX 01 00:00:00
TRACK 02 AUDIO
TITLE "Песня о том, как мы строили навес на даче Евгения Иваныча"
PERFORMER "А.Иващенко, Г.Васильев"
INDEX 00 02:44:31
INDEX 01 02:46:31
TRACK 03 AUDIO
TITLE "Ума палата"
PERFORMER "А.Иващенко, Г.Васильев"
INDEX 00 05:36:56
INDEX 01 05:38:57
TRACK 04 AUDIO
TITLE "Дворник Степанов"
PERFORMER "А.Иващенко, Г.Васильев"
INDEX 00 09:07:69
INDEX 01 09:09:69
TRACK 05 AUDIO
TITLE "Метрополитен"
PERFORMER "А.Иващенко, Г.Васильев"
INDEX 00 11:44:22
INDEX 01 11:46:23
TRACK 06 AUDIO
TITLE "Ну, вот и всё"
PERFORMER "А.Иващенко, Г.Васильев"
INDEX 00 14:40:74
INDEX 01 14:42:74
TRACK 07 AUDIO
TITLE "Сказание о новых временах в селе Непутёвка"
PERFORMER "А.Иващенко, Г.Васильев"
INDEX 00 16:42:64
INDEX 01 16:44:64
TRACK 08 AUDIO
TITLE "Шипучее вино"
PERFORMER "А.Иващенко, Г.Васильев"
INDEX 00 22:42:52
INDEX 01 22:44:53
TRACK 09 AUDIO
TITLE "Трояк"
PERFORMER "А.Иващенко, Г.Васильев"
INDEX 00 25:38:19
INDEX 01 25:40:20
TRACK 10 AUDIO
TITLE "Кончается четверг"
PERFORMER "А.Иващенко, Г.Васильев"
INDEX 00 27:51:60
INDEX 01 27:53:60
TRACK 11 AUDIO
TITLE "На киевском вокзале"
PERFORMER "А.Иващенко, Г.Васильев"
INDEX 00 31:25:63
INDEX 01 31:27:64
TRACK 12 AUDIO
TITLE "Дурь"
PERFORMER "А.Иващенко, Г.Васильев"
INDEX 00 33:39:32
INDEX 01 33:41:33
TRACK 13 AUDIO
TITLE "Пикник в 'Заветах Ильича'"
PERFORMER "А.Иващенко, Г.Васильев"
INDEX 00 36:24:08
INDEX 01 36:26:08
TRACK 14 AUDIO
TITLE "Бом тили бом"
PERFORMER "А.Иващенко, Г.Васильев"
INDEX 00 39:09:13
INDEX 01 39:11:13
TRACK 15 AUDIO
TITLE "Бережкарики"
PERFORMER "А.Иващенко, Г.Васильев"
INDEX 00 40:48:16
INDEX 01 40:50:17
TRACK 16 AUDIO
TITLE "Приходи ко мне, Глафира"
PERFORMER "А.Иващенко, Г.Васильев"
INDEX 00 43:32:13
INDEX 01 43:34:13
TRACK 17 AUDIO
TITLE "Дождь над Иссык-Кулем"
PERFORMER "А.Иващенко, Г.Васильев"
INDEX 00 45:50:16
INDEX 01 45:52:16
TRACK 18 AUDIO
TITLE "Девятый вал"
PERFORMER "А.Иващенко, Г.Васильев"
INDEX 00 48:13:66
INDEX 01 48:15:66
TRACK 19 AUDIO
TITLE "Мой милый"
PERFORMER "А.Иващенко, Г.Васильев"
INDEX 00 49:43:31
INDEX 01 49:45:31
TRACK 20 AUDIO
TITLE "Мне подняли зарплату"
PERFORMER "А.Иващенко, Г.Васильев"
INDEX 00 53:01:37
INDEX 01 53:03:37
TRACK 21 AUDIO
TITLE "Ах, время, время"
PERFORMER "А.Иващенко, Г.Васильев"
INDEX 00 55:40:68
INDEX 01 55:42:69
TRACK 22 AUDIO
TITLE "Ох, не велит народный опыт"
PERFORMER "А.Иващенко, Г.Васильев"
INDEX 00 58:28:46
INDEX 01 58:30:47
TRACK 23 AUDIO
TITLE "Февраль"
PERFORMER "А.Иващенко, Г.Васильев"
INDEX 00 61:46:63
INDEX 01 61:48:63
TRACK 24 AUDIO
TITLE "Кладут асфальт"
PERFORMER "А.Иващенко, Г.Васильев"
INDEX 00 64:00:13
INDEX 01 64:02:14
TRACK 25 AUDIO
TITLE "Альма-Матерь"
PERFORMER "А.Иващенко, Г.Васильев"
INDEX 00 68:08:57
INDEX 01 68:10:57
TRACK 26 AUDIO
TITLE "Пора по пиву"
PERFORMER "А.Иващенко, Г.Васильев"
INDEX 00 70:31:74
INDEX 01 70:33:74
[свернуть]

Лог проверки качества

AUDIOCHECKER v2.0 beta (build 457) - by Dester -
~~~~~~~~~~~~~~~~~~~~~~~~~~~~~~~~~~
-=== НЕ РЕДАКТИРУЙТЕ ЭТОТ ФАЙЛ! ===-

Путь: ...\2010 - Российские барды, том 8 [MR 008 CD]

1 -=- А.Иващенко, Г.Васильев - Российские барды, том 8.flac -=- CDDA (86%)

78531204
[свернуть]

Спектр частот

[свернуть]

Скачать А.Иващенко, Г.Васильев - Российские барды, том 8



password: sergych
[свернуть]
My opinion of release: 10/10
__________________
TAIFUN.Wings of Soul

Вверх
Похожие темы
Тема Автор Раздел Ответов Последнее сообщение
Альбом А.Иващенко и Г.Васильев - Бережкарики sergych Шансон 0 25.01.2014 14:29
Альбом А.Иващенко и Г.Васильев - Альма-Матерь sergych Шансон 0 25.01.2014 13:31
Альбом А.Иващенко и Г.Васильев - Вечный думатель sergych Шансон 0 24.01.2014 15:43
Альбом Российские барды том 21 - Ада Якушева PUPOKIN Шансон 0 06.10.2010 09:41
Релиз Виктор Берковский - Российские барды. Том 9 PUPOKIN Шансон 0 05.07.2010 09:28


Метки
2010 , а.иващенко , авторская песня , г.васильев , иваси , российские барды том 8

Опции темы

Ваши права в разделе
Вы не можете создавать новые темы
Вы не можете отвечать в темах
Вы не можете прикреплять вложения
Вы не можете редактировать свои сообщения

Быстрый переход



Текущее время: 02:38. Часовой пояс GMT +3.
Powered by vBulletin® Version 3.8.10
Copyright ©2000 - 2018, vBulletin Solutions, Inc. Перевод: zCarot
© 2008 - 2018 Taifun With Song
Яндекс.Метрика