TAIFUN With Song
Навигация
Вернуться   TAIFUN With Song > Music (обменник) > Rock > Blues Rock
Расширенный поиск
Blues Rock К концу сороковых годов прошлого столетия в блюзе окончательно обосновалась электрогитара. Трудно сказать, что подтолкнуло многих блюзменов перейти с привычной акустической гитары на электрическую, но блюз с тех пор очень сильно изменился.

А знаете ли Вы, что...
Зачем группа Van Halen в своём райдере требовала предоставить M&M's, но убрать все коричневые конфеты?
«Американская хард-рок группа Van Halen выезжала на гастроли с большим количеством сценического оборудования, так как их шоу были одними из самых сложных в техническом отношении и насыщены множеством спецэффектов. В райдере группы одним из требований было поставить на стол в гримёрке блюдо с M&M's, из которого должны быть убраны все коричневые конфеты. Объяснялся этот пункт вовсе не повышенной капризностью рокеров — если организаторы концерта не выполняли требование об M&M's, это говорило об их невнимательном отношении к деталям райдера. Значит, и другие его пункты могли быть проигнорированы, что могло создать проблемы с качественным проведением шоу и его безопасностью.»
 
Опции темы

  #1
Старый 07.08.2015, 16:58
sergych
Координатор
Досье
 
Аватар для sergych
Релиз Eric Clapton - The Best Of Eric Clapton {20th Century Masters. The Millennium Collection}


2004 - Eric Clapton - The Best Of Eric Clapton {20th Century Masters. The Millennium Collection}




Исполнитель/Artist: Eric Clapton
Альбом/Album: The Best Of Eric Clapton {20th Century Masters. The Millennium Collection}
Год/Year: 2004
Жанр/Genre: Blues Rock, Rock
Страна/Country: Соединённые Штаты
Рекорд-лейбл/Record label: Polydor
Номер в каталоге/Catalogue #: B0007824-02
Формат/Format: Free Lossless Audio Codec (*.flac)
Качество/Quality: Lossless
Тип рипа/RIP Type: image+.cue
Продолжительность/Length: 00:48:22
Источник/Source: Собственный рип
Размер/Size: 336.3 MB

Сканы в комплекте

Треклист

01. I Shot The Sheriff [0:04:26.38]
02. After Midnight [0:02:53.46]
03. Knockin On Heavens Door [0:04:24.52]
04. Wonderful Tonight [0:03:45.15]
05. Layla [0:07:06.20]
06. Cocaine [0:03:40.50]
07. Lay Down Sally [0:03:55.05]
08. Bell Bottom Blues [0:05:04.15]
09. Promises [0:03:03.55]
10. Let It Rain [0:05:03.68]
11. Let It Grow [0:04:58.05]
[свернуть]

youtube.com

[свернуть]

EAC лог

Exact Audio Copy V1.0 beta 3 from 29. August 2011

EAC extraction logfile from 7. August 2015, 14:23

Eric Clapton / 20th Century Masters - Best Of

Used drive : ATAPI iHAS124 D Adapter: 0 ID: 2

Read mode : Secure
Utilize accurate stream : Yes
Defeat audio cache : Yes
Make use of C2 pointers : No

Read offset correction : 6
Overread into Lead-In and Lead-Out : No
Fill up missing offset samples with silence : Yes
Delete leading and trailing silent blocks : No
Null samples used in CRC calculations : Yes
Used interface : Installed external ASPI interface

Used output format : User Defined Encoder
Selected bitrate : 1024 kBit/s
Quality : High
Add ID3 tag : No
Command line compressor : C:\Program Files (x86)\Exact Audio Copy\Flac\flac.exe
Additional command line options : -6 -V -T "ARTIST=%artist%" -T "TITLE=%title%" -T "ALBUM=%albumtitle%" -T "DATE=%year%" -T "TRACKNUMBER=%tracknr%" -T "GENRE=%genre%" -T "COMMENT=%comment%" -T "BAND=%albuminterpret%" -T "COMPOSER=%composer%" %haslyrics%--tag-from-file=LYRICS="%lyricsfile%"%haslyrics% -T "DISCNUMBER=%cdnumber%" -T "TOTALDISCS=%totalcds%" -T "TOTALTRACKS=%numtracks%" %hascover%--picture="%coverfile%"%hascover% %source% -o %dest%


TOC of the extracted CD

Track | Start | Length | Start sector | End sector
---------------------------------------------------------
1 | 0:00.00 | 4:26.38 | 0 | 19987
2 | 4:26.38 | 2:53.46 | 19988 | 33008
3 | 7:20.09 | 4:24.52 | 33009 | 52860
4 | 11:44.61 | 3:45.15 | 52861 | 69750
5 | 15:30.01 | 7:06.20 | 69751 | 101720
6 | 22:36.21 | 3:40.50 | 101721 | 118270
7 | 26:16.71 | 3:55.05 | 118271 | 135900
8 | 30:12.01 | 5:04.15 | 135901 | 158715
9 | 35:16.16 | 3:03.55 | 158716 | 172495
10 | 38:19.71 | 5:03.68 | 172496 | 195288
11 | 43:23.64 | 4:58.05 | 195289 | 217643


Range status and errors

Selected range

Filename C:\mm\Eric Clapton\2004 - The Best Of {20th Century Masters. The Millennium Collection} [B0007824-02]\Eric Clapton - 20th Century Masters. Best Of.wav

Peak level 100.0 %
Extraction speed 9.3 X
Range quality 100.0 %
Test CRC 8BFF59A1
Copy CRC 8BFF59A1
Copy OK

No errors occurred


AccurateRip summary

Track 1 accurately ripped (confidence 63) [EE23D377] (AR v2)
Track 2 accurately ripped (confidence 63) [7C14BFB6] (AR v2)
Track 3 accurately ripped (confidence 63) [524F7C2D] (AR v2)
Track 4 accurately ripped (confidence 62) [E1CF4CC6] (AR v2)
Track 5 accurately ripped (confidence 63) [ED45F748] (AR v2)
Track 6 accurately ripped (confidence 63) [3DC6060F] (AR v2)
Track 7 accurately ripped (confidence 63) [3ADC5D15] (AR v2)
Track 8 accurately ripped (confidence 62) [BCCC4D4C] (AR v2)
Track 9 accurately ripped (confidence 63) [CB13A1FF] (AR v2)
Track 10 accurately ripped (confidence 61) [E8FA51BF] (AR v2)
Track 11 accurately ripped (confidence 63) [543EBD9F] (AR v2)

All tracks accurately ripped

End of status report
[свернуть]

Файл CUE

REM GENRE blues
REM DATE 2004
REM DISCID 8A0B550B
REM COMMENT "ExactAudioCopy v1.0b3"
PERFORMER "Eric Clapton"
TITLE "20th Century Masters - Best Of"
FILE "Eric Clapton - 20th Century Masters. Best Of.flac" WAVE
TRACK 01 AUDIO
TITLE "I Shot The Sheriff"
PERFORMER "Eric Clapton"
INDEX 01 00:00:00
TRACK 02 AUDIO
TITLE "After Midnight"
PERFORMER "Eric Clapton"
INDEX 00 04:23:70
INDEX 01 04:26:38
TRACK 03 AUDIO
TITLE "Knockin On Heavens Door"
PERFORMER "Eric Clapton"
INDEX 00 07:17:40
INDEX 01 07:20:09
TRACK 04 AUDIO
TITLE "Wonderful Tonight"
PERFORMER "Eric Clapton"
INDEX 00 11:42:18
INDEX 01 11:44:61
TRACK 05 AUDIO
TITLE "Layla"
PERFORMER "Eric Clapton"
INDEX 00 15:27:33
INDEX 01 15:30:01
TRACK 06 AUDIO
TITLE "Cocaine"
PERFORMER "Eric Clapton"
INDEX 00 22:33:52
INDEX 01 22:36:21
TRACK 07 AUDIO
TITLE "Lay Down Sally"
PERFORMER "Eric Clapton"
INDEX 00 26:14:29
INDEX 01 26:16:71
TRACK 08 AUDIO
TITLE "Bell Bottom Blues"
PERFORMER "Eric Clapton"
INDEX 00 30:09:33
INDEX 01 30:12:01
TRACK 09 AUDIO
TITLE "Promises"
PERFORMER "Eric Clapton"
INDEX 00 35:13:49
INDEX 01 35:16:16
TRACK 10 AUDIO
TITLE "Let It Rain"
PERFORMER "Eric Clapton"
INDEX 00 38:17:29
INDEX 01 38:19:71
TRACK 11 AUDIO
TITLE "Let It Grow"
PERFORMER "Eric Clapton"
INDEX 00 43:21:19
INDEX 01 43:23:64
[свернуть]

Лог проверки качества

AUDIOCHECKER v2.0 beta (build 457) - by Dester -
~~~~~~~~~~~~~~~~~~~~~~~~~~~~~~~~~~
-=== НЕ РЕДАКТИРУЙТЕ ЭТОТ ФАЙЛ! ===-

Путь: ...\2004 - The Best Of {20th Century Masters. The Millennium Collection} [B0007824-02]

1 -=- Eric Clapton - 20th Century Masters. Best Of.flac -=- MPEG (95%)

237474148
[свернуть]

Спектр частот

[свернуть]

Скачать Eric Clapton - The Best Of Eric Clapton {20th Century Masters. The Millennium Collection}



password: sergych
[свернуть]
My opinion of release: 10/10
__________________
TAIFUN.Wings of Soul

Вверх
Пользователь сказал cпасибо:
Mareki (23.08.2016)
Похожие темы
Тема Автор Раздел Ответов Последнее сообщение
Сборник Joe Cocker - The Best Of Joe Cocker {20th Century Masters. The Millennium Collection} sergych Blues Rock 0 07.08.2015 16:32
Сборник Styx - The Best Of Styx {20th Century Masters. The Millennium Collection} sergych Progressive Rock 0 05.08.2015 21:28
Сборник Aerosmith - The Best Of Aerosmith {20th Century Masters. The Millennium Collection} sergych Hard Rock 0 04.08.2015 21:49
Сборник Eric Clapton - Time Pieces: The Best of Eric Clapton sergych Blues Rock 0 02.08.2014 13:11
Сборник Cher - The Best of Cher {20th Century Masters. The Millennium Collection} sergych Зарубежная Поп-Музыка 0 22.06.2014 09:36


Метки
2004 , blues rock , eric clapton , eric clapton - the best of eric clapton {20th century masters. the millennium collection} , rock

Опции темы

Ваши права в разделе
Вы не можете создавать новые темы
Вы не можете отвечать в темах
Вы не можете прикреплять вложения
Вы не можете редактировать свои сообщения

Быстрый переход



Текущее время: 05:37. Часовой пояс GMT +3.
Powered by vBulletin® Version 3.8.10
Copyright ©2000 - 2018, vBulletin Solutions, Inc. Перевод: zCarot
© 2008 - 2018 Taifun With Song
Яндекс.Метрика