TAIFUN With Song
Навигация
Вернуться   TAIFUN With Song > Music (обменник) > Rock > Blues Rock
Расширенный поиск
Blues Rock К концу сороковых годов прошлого столетия в блюзе окончательно обосновалась электрогитара. Трудно сказать, что подтолкнуло многих блюзменов перейти с привычной акустической гитары на электрическую, но блюз с тех пор очень сильно изменился.

А знаете ли Вы, что...
За какие заслуги музыкантов принимают в «Клуб 27»?
«Среди известных рок- и блюз-музыкантов весьма значительна доля тех, кто умер в 27 лет. Именно в этом возрасте почему-то возникает статистическая погрешность, выделяющаяся из нормального распределения. Для таких музыкантов даже приняли название «Клуб 27». В него включают Джима Моррисона, Джими Хендрикса, Дженис Джоплин, Курта Кобейна и Брайана Джонса. В 27 лет умер также легендарный советский рок-музыкант и поэт Александр Башлачёв.»
 
Опции темы

  #1
Старый 02.08.2014, 13:11
sergych
Координатор
Досье
 
Аватар для sergych
Релиз Eric Clapton - Time Pieces: The Best of Eric Clapton


1982 - Eric Clapton - Time Pieces: The Best of Eric Clapton




Исполнитель/Artist: Eric Clapton
Альбом/Album: Time Pieces: The Best of Eric Clapton
Год/Year: 1982
Жанр/Genre: Blues rock, rock
Страна/Country: Германия
Рекорд-лейбл/Record label: PolyGram / Polydor
Номер в каталоге/Catalogue #: 800 014-2
Формат/Format: Free Lossless Audio Codec (*.flac)
Качество/Quality: Lossless
Тип рипа/RIP Type: image+.cue
Продолжительность/Length: 00:44:56
Источник/Source: Собственный рип
Размер/Size: 312.1 MB

Сканы в комплекте

Треклист

01. I Shot The Sheriff [0:04:23.43] (Bob Marley - 1974)
02. After Midnight [0:03:08.57] (J.J. Cale - 1970)
03. Knockin' On Heaven's Door [0:04:21.00] (Bob Dylan - 1975)
04. Wonderful Tonight [0:03:39.25] (Eric Clapton; Michael Kamen - 1977)
05. Layla [0:07:06.13] (Eric Clapton; Jim Gordon - 1970)
06. Cocaine [0:03:34.50] (J.J. Cale - 1977)
07. Lay Down Sally [0:03:49.37] (Eric Clapton; George Terry; Marcy Levy - 1977)
08. Willie And The Hand Jive [0:03:28.33] (Johnny Otis - 1974)
09. Promises [0:03:00.25] (Richard Feldman; Roger Linn - 1978)
10. Swing Low Sweet Chariot [0:03:29.00] (Traditional - 1975)
11. Let It Grow [0:04:55.42] (Eric Clapton - 1974)
[свернуть]

youtube.com

[свернуть]

EAC лог

Exact Audio Copy V1.0 beta 3 from 29. August 2011

EAC extraction logfile from 2. August 2014, 14:59

Eric Clapton / Time Pieces

Used drive : ATAPI iHAS124 D Adapter: 0 ID: 2

Read mode : Secure
Utilize accurate stream : Yes
Defeat audio cache : Yes
Make use of C2 pointers : No

Read offset correction : 6
Overread into Lead-In and Lead-Out : No
Fill up missing offset samples with silence : Yes
Delete leading and trailing silent blocks : No
Null samples used in CRC calculations : Yes
Used interface : Installed external ASPI interface

Used output format : User Defined Encoder
Selected bitrate : 1024 kBit/s
Quality : High
Add ID3 tag : No
Command line compressor : C:\Program Files (x86)\Exact Audio Copy\Flac\flac.exe
Additional command line options : -6 -V -T "ARTIST=%artist%" -T "TITLE=%title%" -T "ALBUM=%albumtitle%" -T "DATE=%year%" -T "TRACKNUMBER=%tracknr%" -T "GENRE=%genre%" -T "COMMENT=%comment%" -T "BAND=%albuminterpret%" -T "COMPOSER=%composer%" %haslyrics%--tag-from-file=LYRICS="%lyricsfile%"%haslyrics% -T "DISCNUMBER=%cdnumber%" -T "TOTALDISCS=%totalcds%" -T "TOTALTRACKS=%numtracks%" %hascover%--picture="%coverfile%"%hascover% %source% -o %dest%


TOC of the extracted CD

Track | Start | Length | Start sector | End sector
---------------------------------------------------------
1 | 0:00.32 | 4:23.43 | 32 | 19799
2 | 4:24.00 | 3:08.57 | 19800 | 33956
3 | 7:32.57 | 4:21.00 | 33957 | 53531
4 | 11:53.57 | 3:39.25 | 53532 | 69981
5 | 15:33.07 | 7:06.13 | 69982 | 101944
6 | 22:39.20 | 3:34.50 | 101945 | 118044
7 | 26:13.70 | 3:49.37 | 118045 | 135256
8 | 30:03.32 | 3:28.33 | 135257 | 150889
9 | 33:31.65 | 3:00.25 | 150890 | 164414
10 | 36:32.15 | 3:29.00 | 164415 | 180089
11 | 40:01.15 | 4:55.42 | 180090 | 202256


Range status and errors

Selected range

Filename C:\mm\Eric Clapton\1982 - Time Pieces [800 014-2]\Eric Clapton - Time Pieces.wav

Peak level 100.0 %
Extraction speed 8.5 X
Range quality 100.0 %
Test CRC 0A15CD51
Copy CRC 0A15CD51
Copy OK

No errors occurred


AccurateRip summary

Track 1 accurately ripped (confidence 22) [30030701] (AR v2)
Track 2 accurately ripped (confidence 22) [3B693E67] (AR v2)
Track 3 accurately ripped (confidence 22) [873C856A] (AR v2)
Track 4 accurately ripped (confidence 22) [88CEBB6A] (AR v2)
Track 5 accurately ripped (confidence 22) [FF3D0A82] (AR v2)
Track 6 accurately ripped (confidence 22) [5F1FEA96] (AR v2)
Track 7 accurately ripped (confidence 22) [67876018] (AR v2)
Track 8 accurately ripped (confidence 21) [3A50F59E] (AR v2)
Track 9 accurately ripped (confidence 22) [1246078A] (AR v2)
Track 10 accurately ripped (confidence 22) [F137B216] (AR v2)
Track 11 accurately ripped (confidence 22) [03CB42F8] (AR v2)

All tracks accurately ripped

End of status report
[свернуть]

Файл CUE

REM GENRE "Soft Rock, Classic Rock"
REM DATE 1982
REM DISCID 850A880B
REM COMMENT "ExactAudioCopy v1.0b3"
PERFORMER "Eric Clapton"
TITLE "Time Pieces"
FILE "Eric Clapton - Time Pieces.flac" WAVE
TRACK 01 AUDIO
TITLE "I Shot The Sheriff"
PERFORMER "Eric Clapton"
INDEX 00 00:00:00
INDEX 01 00:00:32
TRACK 02 AUDIO
TITLE "After Midnight"
PERFORMER "Eric Clapton"
INDEX 00 04:21:45
INDEX 01 04:24:00
TRACK 03 AUDIO
TITLE "Knockin' On Heaven's Door"
PERFORMER "Eric Clapton"
INDEX 01 07:32:57
TRACK 04 AUDIO
TITLE "Wonderful Tonight"
PERFORMER "Eric Clapton"
INDEX 00 11:52:32
INDEX 01 11:53:57
TRACK 05 AUDIO
TITLE "Layla"
PERFORMER "Eric Clapton"
INDEX 00 15:32:32
INDEX 01 15:33:07
TRACK 06 AUDIO
TITLE "Cocaine"
PERFORMER "Eric Clapton"
INDEX 00 22:37:32
INDEX 01 22:39:20
TRACK 07 AUDIO
TITLE "Lay Down Sally"
PERFORMER "Eric Clapton"
INDEX 00 26:13:07
INDEX 01 26:13:70
TRACK 08 AUDIO
TITLE "Willie And The Hand Jive"
PERFORMER "Eric Clapton"
INDEX 00 30:02:32
INDEX 01 30:03:32
TRACK 09 AUDIO
TITLE "Promises"
PERFORMER "Eric Clapton"
INDEX 00 33:30:45
INDEX 01 33:31:65
TRACK 10 AUDIO
TITLE "Swing Low Sweet Chariot"
PERFORMER "Eric Clapton"
INDEX 00 36:31:37
INDEX 01 36:32:15
TRACK 11 AUDIO
TITLE "Let It Grow"
PERFORMER "Eric Clapton"
INDEX 00 40:00:12
INDEX 01 40:01:15
[свернуть]

Лог проверки качества

AUDIOCHECKER v2.0 beta (build 457) - by Dester -
~~~~~~~~~~~~~~~~~~~~~~~~~~~~~~~~~~
-=== НЕ РЕДАКТИРУЙТЕ ЭТОТ ФАЙЛ! ===-

Путь: ...\1982 - Time Pieces [800 014-2]

1 -=- Eric Clapton - Time Pieces.flac -=- CDDA (99%)

219236132
[свернуть]

Спектр частот

[свернуть]

Скачать Eric Clapton - Time Pieces: The Best of Eric Clapton



password: sergych
[свернуть]
My opinion of release: 10/10
__________________
TAIFUN.Wings of Soul

Вверх
Пользователь сказал cпасибо:
Lighting1981 (17.06.2016)
Похожие темы
Тема Автор Раздел Ответов Последнее сообщение
Сборник Eric Clapton - Clapton Chronicles: The Best Of Eric Clapton sergych Blues Rock 1 16.06.2017 20:36
Сборник Eric Clapton - Eric Clapton sergych Blues Rock 0 04.01.2014 12:16
Сборник Eric Clapton - The Cream of Clapton sergych Blues Rock 0 01.01.2014 10:38
Сборник Eric Clapton - Lexus Presents. Clapton Unleaded sergych Blues Rock 0 31.12.2013 19:21
Альбом Eric Clapton - Clapton rus.lan Blues Rock 1 21.05.2013 12:48


Метки
1982 , blues rock , eric clapton , rock , time pieces: the best of eric clapton

Опции темы

Ваши права в разделе
Вы не можете создавать новые темы
Вы не можете отвечать в темах
Вы не можете прикреплять вложения
Вы не можете редактировать свои сообщения

Быстрый переход



Текущее время: 08:38. Часовой пояс GMT +3.
Powered by vBulletin® Version 3.8.10
Copyright ©2000 - 2018, vBulletin Solutions, Inc. Перевод: zCarot
© 2008 - 2018 Taifun With Song
Яндекс.Метрика