TAIFUN With Song
Вернуться   TAIFUN With Song > Music (обменник) > Rock > Blues Rock
Расширенный поиск
Blues Rock К концу сороковых годов прошлого столетия в блюзе окончательно обосновалась электрогитара. Трудно сказать, что подтолкнуло многих блюзменов перейти с привычной акустической гитары на электрическую, но блюз с тех пор очень сильно изменился.

А знаете ли Вы, что...
Влияние скрипки на пауков!
«Если заиграть перед пауками на скрипке, то они выйдут из своих укрытий!»
 
Опции темы

  #1
Старый 27.01.2014, 22:05
sergych
Координатор
Досье
 
Аватар для sergych
Релиз Eric Clapton - Clapton Chronicles: The Best Of Eric Clapton


1999 - Eric Clapton - Clapton Chronicles: The Best Of Eric Clapton




Исполнитель/Artist: Eric Clapton
Альбом/Album: Clapton Chronicles: The Best Of Eric Clapton
Год/Year: 1999
Жанр/Genre: blues rock, Blues, electric blues, British blues, soul blues
Страна/Country: Соединённые Штаты
Рекорд-лейбл/Record label: Reprise Records
Номер в каталоге/Catalogue #: 9 47553-2
Формат/Format: Free Lossless Audio Codec (*.flac)
Качество/Quality: Lossless
Тип рипа/RIP Type: image+.cue
Продолжительность/Length: 01:07:36
Источник/Source: Собственный рип
Размер/Size: 488.3 MB

Сканы в комплекте

Треклист

01. Blue Eyes Blue [0:04:42.55]
02. Change The World [0:03:55.30]
03. My Father's Eyes [0:05:24.00]
04. Tears In Heaven [0:04:33.10]
05. Layla [0:04:37.28]
06. Pretending [0:04:43.07]
07. Bad Love [0:05:14.15]
08. Before You Accuse Me (Take A Look At Yourself) [0:03:57.13]
09. It's In The Way That You Use It [0:04:11.70]
10. Forever Man [0:03:11.65]
11. Running On Faith [0:06:26.30]
12. She's Waiting [0:04:58.12]
13. River Of Tears [0:07:21.50]
14. (I) Get Lost [0:04:19.48]
[свернуть]

youtube.com

[свернуть]

EAC лог

Exact Audio Copy V1.0 beta 3 from 29. August 2011

EAC extraction logfile from 27. January 2014, 21:19

Eric Clapton / Clapton Chronicles. The Best Of Eric Clapton

Used drive : ATAPI iHAS124 D Adapter: 0 ID: 2

Read mode : Secure
Utilize accurate stream : Yes
Defeat audio cache : Yes
Make use of C2 pointers : Yes

Read offset correction : 6
Overread into Lead-In and Lead-Out : No
Fill up missing offset samples with silence : Yes
Delete leading and trailing silent blocks : No
Null samples used in CRC calculations : Yes
Used interface : Installed external ASPI interface

Used output format : User Defined Encoder
Selected bitrate : 1024 kBit/s
Quality : High
Add ID3 tag : No
Command line compressor : C:\Program Files (x86)\Exact Audio Copy\Flac\flac.exe
Additional command line options : -6 -V -T "ARTIST=%artist%" -T "TITLE=%title%" -T "ALBUM=%albumtitle%" -T "DATE=%year%" -T "TRACKNUMBER=%tracknr%" -T "GENRE=%genre%" -T "COMMENT=%comment%" -T "BAND=%albuminterpret%" -T "COMPOSER=%composer%" %haslyrics%--tag-from-file=LYRICS="%lyricsfile%"%haslyrics% -T "DISCNUMBER=%cdnumber%" -T "TOTALDISCS=%totalcds%" -T "TOTALTRACKS=%numtracks%" %hascover%--picture="%coverfile%"%hascover% %source% -o %dest%


TOC of the extracted CD

Track | Start | Length | Start sector | End sector
---------------------------------------------------------
1 | 0:00.32 | 4:42.55 | 32 | 21236
2 | 4:43.12 | 3:55.30 | 21237 | 38891
3 | 8:38.42 | 5:24.00 | 38892 | 63191
4 | 14:02.42 | 4:33.10 | 63192 | 83676
5 | 18:35.52 | 4:37.28 | 83677 | 104479
6 | 23:13.05 | 4:43.07 | 104480 | 125711
7 | 27:56.12 | 5:14.15 | 125712 | 149276
8 | 33:10.27 | 3:57.13 | 149277 | 167064
9 | 37:07.40 | 4:11.70 | 167065 | 185959
10 | 41:19.35 | 3:11.65 | 185960 | 200349
11 | 44:31.25 | 6:26.30 | 200350 | 229329
12 | 50:57.55 | 4:58.12 | 229330 | 251691
13 | 55:55.67 | 7:21.50 | 251692 | 284816
14 | 63:17.42 | 4:19.48 | 284817 | 304289


Range status and errors

Selected range

Filename C:\mm\Eric Clapton\1999 - Clapton Chronicles. The Best Of Eric Clapton [9 47553-2]\Eric Clapton - Clapton Chronicles. The Best Of Eric Clapton.wav

Peak level 99.9 %
Extraction speed 14.5 X
Range quality 100.0 %
Test CRC 965B7B02
Copy CRC 965B7B02
Copy OK

No errors occurred


AccurateRip summary

Track 1 accurately ripped (confidence 54) [98E2BA4B] (AR v2)
Track 2 accurately ripped (confidence 53) [1F851F96] (AR v2)
Track 3 accurately ripped (confidence 53) [462BFB0B] (AR v2)
Track 4 accurately ripped (confidence 53) [3A176063] (AR v2)
Track 5 accurately ripped (confidence 54) [0C5ADF05] (AR v2)
Track 6 accurately ripped (confidence 53) [F2324373] (AR v2)
Track 7 accurately ripped (confidence 52) [2329CFB8] (AR v2)
Track 8 accurately ripped (confidence 53) [3F15A6C2] (AR v2)
Track 9 accurately ripped (confidence 54) [8801FACE] (AR v2)
Track 10 accurately ripped (confidence 54) [A5ABCD69] (AR v2)
Track 11 accurately ripped (confidence 51) [ED7A909A] (AR v2)
Track 12 accurately ripped (confidence 52) [07E47090] (AR v2)
Track 13 accurately ripped (confidence 51) [63472E94] (AR v2)
Track 14 accurately ripped (confidence 51) [E5661288] (AR v2)

All tracks accurately ripped

End of status report
[свернуть]

Файл CUE

REM GENRE Blues
REM DATE 1999
REM DISCID DE0FD90E
REM COMMENT "ExactAudioCopy v1.0b3"
PERFORMER "Eric Clapton"
TITLE "Clapton Chronicles. The Best Of Eric Clapton"
FILE "Eric Clapton - Clapton Chronicles. The Best Of Eric Clapton.flac" WAVE
TRACK 01 AUDIO
TITLE "Blue Eyes Blue"
PERFORMER "Eric Clapton"
INDEX 00 00:00:00
INDEX 01 00:00:32
TRACK 02 AUDIO
TITLE "Change The World"
PERFORMER "Eric Clapton"
INDEX 00 04:41:70
INDEX 01 04:43:12
TRACK 03 AUDIO
TITLE "My Father's Eyes"
PERFORMER "Eric Clapton"
INDEX 00 08:37:67
INDEX 01 08:38:42
TRACK 04 AUDIO
TITLE "Tears In Heaven"
PERFORMER "Eric Clapton"
INDEX 00 14:01:30
INDEX 01 14:02:42
TRACK 05 AUDIO
TITLE "Layla"
PERFORMER "Eric Clapton"
INDEX 00 18:35:10
INDEX 01 18:35:52
TRACK 06 AUDIO
TITLE "Pretending"
PERFORMER "Eric Clapton"
INDEX 00 23:11:60
INDEX 01 23:13:05
TRACK 07 AUDIO
TITLE "Bad Love"
PERFORMER "Eric Clapton"
INDEX 01 27:56:12
TRACK 08 AUDIO
TITLE "Before You Accuse Me (Take A Look At Yourself)"
PERFORMER "Eric Clapton"
INDEX 00 33:08:27
INDEX 01 33:10:27
TRACK 09 AUDIO
TITLE "It's In The Way That You Use It"
PERFORMER "Eric Clapton"
INDEX 00 37:06:72
INDEX 01 37:07:40
TRACK 10 AUDIO
TITLE "Forever Man"
PERFORMER "Eric Clapton"
INDEX 00 41:17:15
INDEX 01 41:19:35
TRACK 11 AUDIO
TITLE "Running On Faith"
PERFORMER "Eric Clapton"
INDEX 00 44:31:02
INDEX 01 44:31:25
TRACK 12 AUDIO
TITLE "She's Waiting"
PERFORMER "Eric Clapton"
INDEX 00 50:56:70
INDEX 01 50:57:55
TRACK 13 AUDIO
TITLE "River Of Tears"
PERFORMER "Eric Clapton"
INDEX 00 55:54:05
INDEX 01 55:55:67
TRACK 14 AUDIO
TITLE "(I) Get Lost"
PERFORMER "Eric Clapton"
INDEX 00 63:16:15
INDEX 01 63:17:42
[свернуть]

Лог проверки качества

AUDIOCHECKER v2.0 beta (build 457) - by Dester - [Ссылки могут видеть только зарегистрированные пользователи. ]
~~~~~~~~~~~~~~~~~~~~~~~~~~~~~~~~~~
-=== НЕ РЕДАКТИРУЙТЕ ЭТОТ ФАЙЛ! ===-

Путь: ...\1999 - Clapton Chronicles. The Best Of Eric Clapton [9 47553-2]

1 -=- Eric Clapton - Clapton Chronicles. The Best Of Eric Clapton.flac -=- CDDA (99%)

105475092
[свернуть]

Спектр частот

[свернуть]

Скачать Eric Clapton - Clapton Chronicles: The Best Of Eric Clapton

[Ссылки могут видеть только зарегистрированные пользователи. ]

password: sergych
[свернуть]
My opinion of release: 10/10
__________________
TAIFUN.Wings of Soul

Вверх
2 пользователя(ей) сказали cпасибо:
johnsilver (17.06.2017), swint68 (17.06.2017)
  #2
Старый 16.06.2017, 20:36
sergych
Координатор
Досье
 
Аватар для sergych
По умолчанию Re: Eric Clapton - Clapton Chronicles: The Best Of Eric Clapton


1999 - Eric Clapton - Clapton Chronicles: The Best Of Eric Clapton




Исполнитель/Artist: Eric Clapton
Альбом/Album: Clapton Chronicles: The Best Of Eric Clapton
Год/Year: 1999
Жанр/Genre: blues rock, Blues, electric blues, British blues, soul blues
Страна/Country: Германия
Рекорд-лейбл/Record label: WEA International
Номер в каталоге/Catalogue #: 9362-47564-2
Формат/Format: Free Lossless Audio Codec (*.flac)
Качество/Quality: Lossless
Тип рипа/RIP Type: image+.cue
Продолжительность/Length: 01:13:03
Источник/Source: Собственный рип
Размер/Size: 560.8 MB

Сканы в комплекте

Треклист

01. Blue Eyes Blue [0:04:42.55]
02. Change The World [0:03:55.30]
03. My Father's Eyes [0:05:24.00]
04. Tears In Heaven [0:04:33.10]
05. Layla [0:04:37.27]
06. Pretending [0:04:43.08]
07. Bad Love [0:05:14.15]
08. Before You Accuse Me (Take A Look At Yourself) [0:03:57.12]
09. It's In The Way That You Use It [0:04:11.70]
10. Forever Man [0:03:11.65]
11. Running On Faith [0:06:26.30]
12. She's Waiting [0:04:58.13]
13. River Of Tears [0:07:21.50]
14. (I) Get Lost [0:04:21.05]

Bonus track:
15. Wonderful Tonight (Live Edit) [0:05:24.32]
[свернуть]

youtube.com

[свернуть]

Исполнители/Performers

Eric Clapton – dobro, guitar, vocals, producer, soloist
Chaka Khan, Chyna Gordon, Katie Kissoon, Marcy Levy, Tessa Niles – vocals
Phil Collins – drums, producer, vocals
Jimmy Bralower – drum machine
Paul Waller – drum programming
Henry Spinetti, Jamie Oldaker, Jim Keltner, Jeff Porcaro, Steve Ferrone, Steve Gadd – drums
Luis Conte, Mike Fasano, Ray Cooper – percussion
Lenny Castro – percussion, conga
Carol Steele – conga
Michael Omartian, Peter Robinson, Randy Kerber, Richard Cottle, Robbie Kondor – synthesizer
Jeff Bova – organ, synthesizer horn
Greg Phillinganes, Joe Sample, Richard Tee – piano
Chris Stainton – organ
Chuck Leavell, Jamie Muhoberac – keyboards
Simon Climie – keyboards, producer, protools
Greg Curtis – keyboards, programming, vocals
Michael Brecker – saxophone
Randy Brecker – trumpet
Gary Brooker – keyboards, vocals
David Campbell – string arrangements
Alan Clark – bass, organ, sequencing, synthesizer horn
Donald "Duck" Dunn, Laurence Cottle, Pino Palladino – bass
Nathan East – bass, vocals
Gayle Levant – Celtic harp
Jon Faddis – trumpet
Dave Bargeron – trombone
Ted Templeman – timbales, producer
Andy Fairweather Low, Darryl Crookes, Phil Palmer, Robert Cray, Steve Lukather, Tim Pierce – guitar
JayDee Mannes – pedal steel
Jerry Lynn Williams – guitar, backing vocals, harmony vocals
[свернуть]

EAC лог

Exact Audio Copy V1.3 from 2. September 2016

EAC extraction logfile from 16. June 2017, 8:21

Eric Clapton / Clapton Chronicles: The Best Of Eric Clapton

Used drive : ATAPI iHAS124 D Adapter: 0 ID: 2

Read mode : Burst

Read offset correction : 6
Overread into Lead-In and Lead-Out : No
Fill up missing offset samples with silence : Yes
Delete leading and trailing silent blocks : No
Null samples used in CRC calculations : Yes
Used interface : Installed external ASPI interface

Used output format : User Defined Encoder
Selected bitrate : 1024 kBit/s
Quality : High
Add ID3 tag : No
Command line compressor : C:\Program Files (x86)\Exact Audio Copy\Flac\flac.exe
Additional command line options : -6 -V -T "ARTIST=%artist%" -T "TITLE=%title%" -T "ALBUM=%albumtitle%" -T "DATE=%year%" -T "TRACKNUMBER=%tracknr%" -T "GENRE=%genre%" -T "COMMENT=%comment%" -T "BAND=%albuminterpret%" -T "ALBUMARTIST=%albuminterpret%" -T "COMPOSER=%composer%" %haslyrics%--tag-from-file=LYRICS="%lyricsfile%"%haslyrics% -T "DISCNUMBER=%cdnumber%" -T "TOTALDISCS=%totalcds%" -T "TOTALTRACKS=%numtracks%" %hascover%--picture="%coverfile%"%hascover% %source% -o %dest%


TOC of the extracted CD

Track | Start | Length | Start sector | End sector
---------------------------------------------------------
1 | 0:00.00 | 4:42.55 | 0 | 21204
2 | 4:42.55 | 3:55.30 | 21205 | 38859
3 | 8:38.10 | 5:24.00 | 38860 | 63159
4 | 14:02.10 | 4:33.10 | 63160 | 83644
5 | 18:35.20 | 4:37.27 | 83645 | 104446
6 | 23:12.47 | 4:43.08 | 104447 | 125679
7 | 27:55.55 | 5:14.15 | 125680 | 149244
8 | 33:09.70 | 3:57.12 | 149245 | 167031
9 | 37:07.07 | 4:11.70 | 167032 | 185926
10 | 41:19.02 | 3:11.65 | 185927 | 200316
11 | 44:30.67 | 6:26.30 | 200317 | 229296
12 | 50:57.22 | 4:58.13 | 229297 | 251659
13 | 55:55.35 | 7:21.50 | 251660 | 284784
14 | 63:17.10 | 4:21.05 | 284785 | 304364
15 | 67:38.15 | 5:24.32 | 304365 | 328696


Range status and errors

Selected range

Filename C:\mm\Eric Clapton\1999 - Clapton Chronicles. The Best Of Eric Clapton [9362-47564-2]\Eric Clapton - Clapton Chronicles- The Best Of Eric Clapton.wav

Peak level 99.9 %
Extraction speed 12.1 X
Test CRC 5DBEFEB0
Copy CRC 5DBEFEB0
Copy OK

No errors occurred


AccurateRip summary

Track 1 accurately ripped (confidence 200) [C333C9E2] (AR v2)
Track 2 accurately ripped (confidence 200) [6CC90C23] (AR v2)
Track 3 accurately ripped (confidence 200) [11BCF4C9] (AR v2)
Track 4 accurately ripped (confidence 200) [F322D884] (AR v2)
Track 5 accurately ripped (confidence 200) [A3DAA6C6] (AR v2)
Track 6 accurately ripped (confidence 200) [03561E80] (AR v2)
Track 7 accurately ripped (confidence 200) [97243C08] (AR v2)
Track 8 accurately ripped (confidence 200) [B2ADA840] (AR v2)
Track 9 accurately ripped (confidence 200) [5D74552E] (AR v2)
Track 10 accurately ripped (confidence 200) [A8EEBE58] (AR v2)
Track 11 accurately ripped (confidence 200) [79D8AEB8] (AR v2)
Track 12 accurately ripped (confidence 200) [D9C53049] (AR v2)
Track 13 accurately ripped (confidence 200) [43ABDD1F] (AR v2)
Track 14 accurately ripped (confidence 200) [B1852389] (AR v2)
Track 15 accurately ripped (confidence 200) [3A90DCBE] (AR v2)

All tracks accurately ripped

End of status report

---- CUETools DB Plugin V2.1.6

[CTDB TOCID: mQTFjUCBicaY9bCnR0c.mXkJAVU-] found
Submit result: mQTFjUCBicaY9bCnR0c.mXkJAVU- has been confirmed
Track | CTDB Status
1 | (1227/1527) Accurately ripped
2 | (1254/1527) Accurately ripped
3 | (1250/1527) Accurately ripped
4 | (1254/1527) Accurately ripped
5 | (1256/1527) Accurately ripped
6 | (1252/1527) Accurately ripped
7 | (1252/1527) Accurately ripped
8 | (1256/1527) Accurately ripped
9 | (1251/1527) Accurately ripped
10 | (1253/1527) Accurately ripped
11 | (1247/1527) Accurately ripped
12 | (1255/1527) Accurately ripped
13 | (1245/1527) Accurately ripped
14 | (1244/1527) Accurately ripped
15 | (1223/1527) Accurately ripped, or (6/1527) differs in 191 samples @04:45:70-04:45:71,04:47:46-04:47:47,04:48:34,04:54:25-04:54:26,04:59:50,05:12:00-05:12:01
[свернуть]

Файл CUE

REM GENRE Pop/Rock
REM DATE 1999
REM DISCID E3111E0F
REM COMMENT "ExactAudioCopy v1.3"
PERFORMER "Eric Clapton"
TITLE "Clapton Chronicles: The Best Of Eric Clapton"
REM COMPOSER ""
FILE "Eric Clapton - Clapton Chronicles- The Best Of Eric Clapton.flac" WAVE
TRACK 01 AUDIO
TITLE "Blue Eyes Blue"
PERFORMER "Eric Clapton"
REM COMPOSER ""
INDEX 01 00:00:00
TRACK 02 AUDIO
TITLE "Change The World"
PERFORMER "Eric Clapton"
REM COMPOSER ""
INDEX 00 04:41:37
INDEX 01 04:42:55
TRACK 03 AUDIO
TITLE "My Father's Eyes"
PERFORMER "Eric Clapton"
REM COMPOSER ""
INDEX 00 08:37:35
INDEX 01 08:38:10
TRACK 04 AUDIO
TITLE "Tears In Heaven"
PERFORMER "Eric Clapton"
REM COMPOSER ""
INDEX 00 14:00:72
INDEX 01 14:02:10
TRACK 05 AUDIO
TITLE "Layla"
PERFORMER "Eric Clapton"
REM COMPOSER ""
INDEX 00 18:34:52
INDEX 01 18:35:20
TRACK 06 AUDIO
TITLE "Pretending"
PERFORMER "Eric Clapton"
REM COMPOSER ""
INDEX 00 23:11:27
INDEX 01 23:12:47
TRACK 07 AUDIO
TITLE "Bad Love"
PERFORMER "Eric Clapton"
REM COMPOSER ""
INDEX 01 27:55:55
TRACK 08 AUDIO
TITLE "Before You Accuse Me (Take A Look At Yourself)"
PERFORMER "Eric Clapton"
REM COMPOSER ""
INDEX 00 33:07:71
INDEX 01 33:09:70
TRACK 09 AUDIO
TITLE "It's In The Way That You Use It"
PERFORMER "Eric Clapton"
REM COMPOSER ""
INDEX 00 37:06:40
INDEX 01 37:07:07
TRACK 10 AUDIO
TITLE "Forever Man"
PERFORMER "Eric Clapton"
REM COMPOSER ""
INDEX 00 41:16:57
INDEX 01 41:19:02
TRACK 11 AUDIO
TITLE "Running On Faith"
PERFORMER "Eric Clapton"
REM COMPOSER ""
INDEX 00 44:30:45
INDEX 01 44:30:67
TRACK 12 AUDIO
TITLE "She's Waiting"
PERFORMER "Eric Clapton"
REM COMPOSER ""
INDEX 00 50:56:37
INDEX 01 50:57:22
TRACK 13 AUDIO
TITLE "River Of Tears"
PERFORMER "Eric Clapton"
REM COMPOSER ""
INDEX 00 55:53:47
INDEX 01 55:55:35
TRACK 14 AUDIO
TITLE "(I) Get Lost"
PERFORMER "Eric Clapton"
REM COMPOSER ""
INDEX 00 63:15:57
INDEX 01 63:17:10
TRACK 15 AUDIO
TITLE "Wonderful Tonight (Live Edit)"
PERFORMER "Eric Clapton"
REM COMPOSER ""
INDEX 00 67:36:57
INDEX 01 67:38:15
[свернуть]

Лог проверки качества

AUDIOCHECKER v2.0 beta (build 457) - by Dester - [Ссылки могут видеть только зарегистрированные пользователи. ]
~~~~~~~~~~~~~~~~~~~~~~~~~~~~~~~~~~
-=== НЕ РЕДАКТИРУЙТЕ ЭТОТ ФАЙЛ! ===-

Путь: ...\1999 - Clapton Chronicles. The Best Of Eric Clapton [9362-47564-2]

1 -=- Eric Clapton - Clapton Chronicles- The Best Of Eric Clapton.flac -=- CDDA (99%)

105454612
[свернуть]

Спектр частот

[свернуть]

Скачать Eric Clapton - Clapton Chronicles: The Best Of Eric Clapton

[Ссылки могут видеть только зарегистрированные пользователи. ]

password: sergych
[свернуть]

Контрольная сумма (хеш-сумма) архива

MD5: 64fbd9aa9bbb4aa2d2397fdad62ebd9f
[свернуть]
My opinion of release: 10/10

Release info RInfo

Европеец с бонус-треком
__________________
TAIFUN.Wings of Soul

Вверх
3 пользователя(ей) сказали cпасибо:
Показать список поблагодаривших
Похожие темы
Тема Автор Раздел Ответов Последнее сообщение
Сборник Eric Clapton - Eric Clapton sergych Blues Rock 0 04.01.2014 14:16
Сборник Eric Clapton - The Cream of Clapton sergych Blues Rock 0 01.01.2014 12:38
Сборник Eric Clapton - Lexus Presents. Clapton Unleaded sergych Blues Rock 0 31.12.2013 21:21
Альбом Eric Clapton - Clapton rus.lan Blues Rock 1 21.05.2013 13:48
Альбом Eric Clapton - E.C. Was Here PUPOKIN Blues Rock 0 20.01.2009 10:44


Метки
1999 , blues , blues rock , british blues , clapton chronicles: the best of eric clapton , electric blues , eric clapton , soul blues

Опции темы

Ваши права в разделе
Вы не можете создавать новые темы
Вы не можете отвечать в темах
Вы не можете прикреплять вложения
Вы не можете редактировать свои сообщения

Быстрый переход



Текущее время: 19:04. Часовой пояс GMT +3.
Powered by vBulletin® Version 3.8.7
Copyright ©2000 - 2017, vBulletin Solutions, Inc. Перевод: zCarot
© 2008 - 2017 Taifun With Song
Яндекс.Метрика