TAIFUN With Song
Навигация
Вернуться   TAIFUN With Song > Music (обменник) > Rock > Rock`n`Roll
Расширенный поиск
Rock`n`Roll В Rock n Rollе доминирующими инструментами являлись электрические, а роль лидера прочно захватила электрогитара. Ритм стали задавать контрабас (позже бас-гитара) и ударные, что позволило либо совсем убрать из инструментария духовые, либо перевести их на роль аккомпанирующих и часто необязательных инструментов.

А знаете ли Вы, что...
Какой русский поп-певец имеет самую большую армию поклонников?
«Витас — самый популярный современный русский исполнитель в Китае, что ставит его на первое место среди всех русских исполнителей по общему числу поклонников в мире.»
 
Опции темы

  #1
Старый 04.02.2012, 09:50
sergych
Координатор
Досье
 
Аватар для sergych
Релиз VA - Listen To Me: Buddy Holly


2011 - Listen To Me: Buddy Holly




Исполнитель/Artist: VA
Альбом/Album: Listen To Me: Buddy Holly
Год/Year: 2011
Жанр/Genre: Rock'n'Roll, Rockabilly, Rock, Ballads
Страна/Country: USA
Рекорд-лейбл/Record label: Songmasters LLC / Verve Forecast
Формат/Format: Free Lossless Audio Codec (*.flac)
Качество/Quality: Lossless
Тип рипа/RIP Type: tracks+.cue
Продолжительность/Length: 00:43:54
Источник/Source: Из интернета
Размер/Size: 322.7 MB

Сканы в комплекте

Треклист

01 - Not Fade Away (Stevie Nicks)
02 - Maybe Baby (Pat Monahan (Train))
03 - Listen To Me (Brian Wilson)
04 - I'm Lookin' For Someone To Love (Imelda May)
05 - True Love Ways (Jackson Browne)
06 - Peggy Sue (Cobra Starship)
07 - Take Your Time (The Fray)
08 - Think It Over (Ringo Starr)
09 - Crying Waiting Hoping (Chris Isaak)
10 - That'll Be The Day (1976) (Linda Ronstadt)
11 - Words Of Love (Jeff Lynne)
12 - Well All Right (Lyle Lovett)
13 - Learning The Game (Natalie Merchant)
14 - Everyday (Patrick Stump)
15 - It's So Easy (Zooey Deschanel)
16 Raining In My Heart (Eric Idle)
[свернуть]

youtube.com

[свернуть]

EAC лог

Exact Audio Copy V1.0 beta 3 from 29. August 2011

EAC extraction logfile from 4. October 2011, 17:59

Various / Listen To Me: Buddy Holly

Used drive : HL-DT-STDVD-RAM GH22NS30 Adapter: 3 ID: 0

Read mode : Secure
Utilize accurate stream : Yes
Defeat audio cache : No
Make use of C2 pointers : No

Read offset correction : 102
Overread into Lead-In and Lead-Out : No
Fill up missing offset samples with silence : Yes
Delete leading and trailing silent blocks : No
Null samples used in CRC calculations : Yes
Used interface : Native Win32 interface for Win NT & 2000
Gap handling : Appended to previous track

Used output format : User Defined Encoder
Selected bitrate : 896 kBit/s
Quality : High
Add ID3 tag : No
Command line compressor : C:\Program Files (x86)\Exact Audio Copy\Flac\flac.exe
Additional command line options : -V -8 -T "artist=%artist%" -T "title=%title%" -T "album=%albumtitle%" -T "date=%year%" -T "tracknumber=%tracknr1%" -T "genre=%genre%" %source%


TOC of the extracted CD

Track | Start | Length | Start sector | End sector
---------------------------------------------------------
1 | 0:00.00 | 3:59.34 | 0 | 17958
2 | 3:59.34 | 2:26.43 | 17959 | 28951
3 | 6:26.02 | 2:41.54 | 28952 | 41080
4 | 9:07.56 | 2:08.20 | 41081 | 50700
5 | 11:16.01 | 3:03.54 | 50701 | 64479
6 | 14:19.55 | 2:51.19 | 64480 | 77323
7 | 17:10.74 | 3:27.16 | 77324 | 92864
8 | 20:38.15 | 1:48.60 | 92865 | 101024
9 | 22:27.00 | 2:27.18 | 101025 | 112067
10 | 24:54.18 | 2:34.36 | 112068 | 123653
11 | 27:28.54 | 2:06.23 | 123654 | 133126
12 | 29:35.02 | 2:22.60 | 133127 | 143836
13 | 31:57.62 | 3:28.28 | 143837 | 159464
14 | 35:26.15 | 2:38.58 | 159465 | 171372
15 | 38:04.73 | 2:55.39 | 171373 | 184536
16 | 41:00.37 | 3:00.54 | 184537 | 198090


Track 1

Filename C:\EACrips\01 - Stevie Nicks - Not Fade Away.wav

Pre-gap length 0:00:02.00

Peak level 99.7 %
Extraction speed 2.8 X
Track quality 100.0 %
Test CRC 210A7EA6
Copy CRC 210A7EA6
Track not present in AccurateRip database
Copy OK

Track 2

Filename C:\EACrips\02 - Pat Monahan (Train) - Maybe Baby.wav

Pre-gap length 0:00:00.01

Peak level 99.7 %
Extraction speed 2.9 X
Track quality 100.0 %
Test CRC B2ABDA08
Copy CRC B2ABDA08
Track not present in AccurateRip database
Copy OK

Track 3

Filename C:\EACrips\03 - Brian Wilson - Listen To Me.wav

Pre-gap length 0:00:00.02

Peak level 99.7 %
Extraction speed 3.3 X
Track quality 100.0 %
Test CRC 66F376FE
Copy CRC 66F376FE
Track not present in AccurateRip database
Copy OK

Track 4

Filename C:\EACrips\04 - Imelda May - I'm Lookin' For Someone To Love.wav

Peak level 91.2 %
Extraction speed 3.4 X
Track quality 100.0 %
Test CRC 0ADE5B5F
Copy CRC 0ADE5B5F
Track not present in AccurateRip database
Copy OK

Track 5

Filename C:\EACrips\05 - Jackson Browne - True Love Ways.wav

Peak level 99.7 %
Extraction speed 3.7 X
Track quality 100.0 %
Test CRC 7185080E
Copy CRC 7185080E
Track not present in AccurateRip database
Copy OK

Track 6

Filename C:\EACrips\06 - Cobra Starship - Peggy Sue.wav

Peak level 99.7 %
Extraction speed 3.8 X
Track quality 100.0 %
Test CRC A769E4E6
Copy CRC A769E4E6
Track not present in AccurateRip database
Copy OK

Track 7

Filename C:\EACrips\07 - The Fray - Take Your Time.wav

Peak level 99.7 %
Extraction speed 3.9 X
Track quality 100.0 %
Test CRC 55A9118C
Copy CRC 55A9118C
Track not present in AccurateRip database
Copy OK

Track 8

Filename C:\EACrips\08 - Ringo Starr - Think It Over.wav

Peak level 99.7 %
Extraction speed 3.9 X
Track quality 100.0 %
Test CRC 42939F2E
Copy CRC 42939F2E
Track not present in AccurateRip database
Copy OK

Track 9

Filename C:\EACrips\09 - Chris Isaak - Crying Waiting Hoping.wav

Pre-gap length 0:00:00.01

Peak level 85.6 %
Extraction speed 3.9 X
Track quality 100.0 %
Test CRC 8431939C
Copy CRC 8431939C
Track not present in AccurateRip database
Copy OK

Track 10

Filename C:\EACrips\10 - Linda Ronstadt - That'll Be The Day (1976).wav

Pre-gap length 0:00:01.14

Peak level 99.7 %
Extraction speed 4.3 X
Track quality 100.0 %
Test CRC FC05AA42
Copy CRC FC05AA42
Track not present in AccurateRip database
Copy OK

Track 11

Filename C:\EACrips\11 - Jeff Lynne - Words Of Love.wav

Pre-gap length 0:00:00.58

Peak level 88.9 %
Extraction speed 4.2 X
Track quality 100.0 %
Test CRC C77FE1A9
Copy CRC C77FE1A9
Track not present in AccurateRip database
Copy OK

Track 12

Filename C:\EACrips\12 - Lyle Lovett - Well All Right.wav

Peak level 99.7 %
Extraction speed 4.2 X
Track quality 100.0 %
Test CRC 39AA9486
Copy CRC 39AA9486
Track not present in AccurateRip database
Copy OK

Track 13

Filename C:\EACrips\13 - Natalie Merchant - Learning The Game.wav

Peak level 80.0 %
Extraction speed 4.5 X
Track quality 100.0 %
Test CRC 0828D04D
Copy CRC 0828D04D
Track not present in AccurateRip database
Copy OK

Track 14

Filename C:\EACrips\14 - Patrick Stump - Everyday.wav

Peak level 99.7 %
Extraction speed 4.6 X
Track quality 100.0 %
Test CRC F9896FE9
Copy CRC F9896FE9
Track not present in AccurateRip database
Copy OK

Track 15

Filename C:\EACrips\15 - Zooey Deschanel - It's So Easy.wav

Peak level 99.7 %
Extraction speed 4.7 X
Track quality 100.0 %
Test CRC D670B067
Copy CRC D670B067
Track not present in AccurateRip database
Copy OK

Track 16

Filename C:\EACrips\16 - Eric Idle - Raining In My Heart.wav

Peak level 76.4 %
Extraction speed 4.9 X
Track quality 100.0 %
Test CRC 4785CA61
Copy CRC 4785CA61
Track not present in AccurateRip database
Copy OK


None of the tracks are present in the AccurateRip database

No errors occurred

End of status report

==== Log checksum 1057A5940393D89362A81ADD127DADDF5403AE8C8CF52F9334E05BE7AA57FCDD ====
[свернуть]

Файл CUE

REM GENRE "Rock & Roll"
REM DATE 2011
REM DISCID E70A5110
REM COMMENT "ExactAudioCopy v1.0b3"
FILE "01 - Stevie Nicks - Not Fade Away.wav" WAVE
TRACK 01 AUDIO
INDEX 01 00:00:00
TRACK 02 AUDIO
INDEX 00 03:59:33
FILE "02 - Pat Monahan (Train) - Maybe Baby.wav" WAVE
INDEX 01 00:00:00
TRACK 03 AUDIO
INDEX 00 02:26:41
FILE "03 - Brian Wilson - Listen To Me.wav" WAVE
INDEX 01 00:00:00
FILE "04 - Imelda May - I'm Lookin' For Someone To Love.wav" WAVE
TRACK 04 AUDIO
INDEX 01 00:00:00
FILE "05 - Jackson Browne - True Love Ways.wav" WAVE
TRACK 05 AUDIO
INDEX 01 00:00:00
FILE "06 - Cobra Starship - Peggy Sue.wav" WAVE
TRACK 06 AUDIO
INDEX 01 00:00:00
FILE "07 - The Fray - Take Your Time.wav" WAVE
TRACK 07 AUDIO
INDEX 01 00:00:00
FILE "08 - Ringo Starr - Think It Over.wav" WAVE
TRACK 08 AUDIO
INDEX 01 00:00:00
TRACK 09 AUDIO
INDEX 00 01:48:59
FILE "09 - Chris Isaak - Crying Waiting Hoping.wav" WAVE
INDEX 01 00:00:00
TRACK 10 AUDIO
INDEX 00 02:26:07
FILE "10 - Linda Ronstadt - That'll Be The Day (1976).wav" WAVE
INDEX 01 00:00:00
TRACK 11 AUDIO
INDEX 00 02:33:67
FILE "11 - Jeff Lynne - Words Of Love.wav" WAVE
INDEX 01 00:00:00
FILE "12 - Lyle Lovett - Well All Right.wav" WAVE
TRACK 12 AUDIO
INDEX 01 00:00:00
FILE "13 - Natalie Merchant - Learning The Game.wav" WAVE
TRACK 13 AUDIO
INDEX 01 00:00:00
FILE "14 - Patrick Stump - Everyday.wav" WAVE
TRACK 14 AUDIO
INDEX 01 00:00:00
FILE "15 - Zooey Deschanel - It's So Easy.wav" WAVE
TRACK 15 AUDIO
INDEX 01 00:00:00
FILE "16 - Eric Idle Raining - In My Heart.wav" WAVE
TRACK 16 AUDIO
INDEX 01 00:00:00
[свернуть]

Лог проверки качества

AUDIOCHECKER v2.0 beta (build 457) - by Dester -
~~~~~~~~~~~~~~~~~~~~~~~~~~~~~~~~~~
-=== НЕ РЕДАКТИРУЙТЕ ЭТОТ ФАЙЛ! ===-

Путь: ...\2011 - Listen To Me [Tribute to Buddy Holly]

01 -=- 01 - Stevie Nicks - Not Fade Away.flac -=- CDDA (100%)
02 -=- 02 - Pat Monahan (Train) - Maybe Baby.flac -=- CDDA (100%)
03 -=- 03 - Brian Wilson - Listen To Me.flac -=- CDDA (100%)
04 -=- 04 - Imelda May - I'm Lookin' For Someone To Love.flac -=- CDDA (100%)
05 -=- 05 - Jackson Browne - True Love Ways.flac -=- CDDA (100%)
06 -=- 06 - Cobra Starship - Peggy Sue.flac -=- CDDA (99%)
07 -=- 07 - The Fray - Take Your Time.flac -=- CDDA (99%)
08 -=- 08 - Ringo Starr - Think It Over.flac -=- CDDA (100%)
09 -=- 09 - Chris Isaak - Crying Waiting Hoping.flac -=- CDDA (100%)
10 -=- 10 - Linda Ronstadt - That'll Be The Day (1976).flac -=- CDDA (100%)
11 -=- 11 - Jeff Lynne - Words Of Love.flac -=- CDDA (100%)
12 -=- 12 - Lyle Lovett - Well All Right.flac -=- CDDA (100%)
13 -=- 13 - Natalie Merchant - Learning The Game.flac -=- CDDA (100%)
14 -=- 14 - Patrick Stump - Everyday.flac -=- CDDA (100%)
15 -=- 15 - Zooey Deschanel - It's So Easy.flac -=- CDDA (100%)
16 -=- 16 - Eric Idle - Raining In My Heart.flac -=- CDDA (100%)

Сводка 99,88% CDDA

174368756
[свернуть]

Скачать Listen To Me: Buddy Holly



password: sergych
[свернуть]
My opinion of release: 10/10
__________________
TAIFUN.Wings of Soul

Вверх
Похожие темы
Тема Автор Раздел Ответов Последнее сообщение
VA Pure Listen Vol. 1 PUPOKIN House 0 31.12.2010 08:49
Релиз Indigo Girls - Holly Happy Days PUPOKIN Folk (народная) 0 21.12.2010 09:39
Альбом Scott Holt - From Lettsworth to Legend - A Tribute to Buddy Guy PUPOKIN Blues Rock 0 24.06.2010 08:46
Альбом Pink Floyd - En Bossa Nova by Holly Wilson PUPOKIN Downtempo 0 02.01.2009 11:23
Hooverphonic - Sit Down And Listen To SERAF Зарубежная Поп-Музыка 0 08.05.2008 15:16


Метки
2011 , ballads , listen to me: buddy holly , rock , rock'n'roll

Опции темы

Ваши права в разделе
Вы не можете создавать новые темы
Вы не можете отвечать в темах
Вы не можете прикреплять вложения
Вы не можете редактировать свои сообщения

Быстрый переход



Текущее время: 13:58. Часовой пояс GMT +3.
Powered by vBulletin® Version 3.8.10
Copyright ©2000 - 2018, vBulletin Solutions, Inc. Перевод: zCarot
© 2008 - 2018 Taifun With Song
Яндекс.Метрика