TAIFUN With Song
Навигация
Вернуться   TAIFUN With Song > Music (обменник) > Club & Electronic Music > Disco
Расширенный поиск
Disco Один из самых популярных танцевальных музыкальных стилей 70-х годов. Цель этой музыки была одна: любыми способами заставить людей выйти на танцплощадку, поэтому Disco преуспело главным образом как студийное творчество, увековеченное на пластинках, а далеко не как живые концертные шоу. Почти для всех произведений Disco характерен монотонный акцентированный ритм, фоновое звучание ведущих инструментов группы или оркестра (гитары, струнные, духовые) и достаточно выразительный вокал.

А знаете ли Вы, что...
Откуда взялось выражение «играть на нервах»?
«Когда древние врачи открыли значение нервов в организме человека, они назвали их по сходству со струнами музыкальных инструментов тем же словом — nervus. Отсюда возникло выражение для раздражающих действий — «играть на нервах».»
 
Опции темы

  #1
Старый 03.05.2008, 17:57
sergych
Координатор
Досье
 
Аватар для sergych
Релиз Donna Summer - Lady Of The Night

1974 - Donna Summer - Lady Of The Night



Исполнитель/Artist: Donna Summer
Альбом/Album: Lady Of The Night
Год/Year: 1974
Издатель/Label: Repertoire Records
Жанр/Genre: Disco, Pop
Формат/Format: mp3 CBR
Качество/Quality: 320kbps Stereo
Размер/Size: 71.7 MB
Продолжительность/Length: 00:31:51

Все песни содержат текст и обложку

Треклист

01 - Lady Of The Night
02 - Born To Die
03 - Friends
04 - Domino
05 - The Hostage
06 - Wounded
07 - Little Miss Fit
08 - Let's Work Together Now
09 - Sing Along (Sad Song)
[свернуть]

Скачать




Password: sergych
[свернуть]
__________________
TAIFUN.Wings of Soul


Последний раз редактировалось sergych, 30.10.2015 в 18:48. Причина: перезаливка
Вверх
  #2
Старый 27.06.2016, 18:25
sergych
Координатор
Досье
 
Аватар для sergych
Релиз Re: Donna Summer - Lady Of The Night


1974(1999) - Donna Summer - Lady Of The Night




Исполнитель/Artist: Donna Summer
Альбом/Album: Lady Of The Night
Год/Year: 1974
Ремастеринг/Remaster: 1999
Жанр/Genre: Disco, Pop, Dance
Страна/Country: Германия
Рекорд-лейбл/Record label: Repertoire Records
Номер в каталоге/Catalogue #: REP 4767-WG
Формат/Format: Free Lossless Audio Codec (*.flac)
Качество/Quality: Lossless
Тип рипа/RIP Type: image+.cue
Продолжительность/Length: 00:31:30
Источник/Source: Собственный рип
Размер/Size: 252 MB

Сканы в комплекте

Треклист

01. Lady Of The Night [0:03:59.67]
02. Born To Die [0:03:22.43]
03. Friends [0:03:29.55]
04. Domino [0:03:15.35]
05. The Hostage [0:04:19.27]
06. Wounded [0:02:43.33]
07. Little Miss Fit [0:03:06.12]
08. Let's Work Together Now [0:03:56.20]
09. Sing Along (Sad Song) [0:03:17.40]
[свернуть]

youtube.com

[свернуть]

EAC лог

Exact Audio Copy V1.1 from 23. June 2015

EAC extraction logfile from 18. June 2016, 10:49

Donna Summer / Lady Of The Night

Used drive : ATAPI iHAS124 D Adapter: 0 ID: 2

Read mode : Secure
Utilize accurate stream : Yes
Defeat audio cache : Yes
Make use of C2 pointers : No

Read offset correction : 6
Overread into Lead-In and Lead-Out : No
Fill up missing offset samples with silence : Yes
Delete leading and trailing silent blocks : No
Null samples used in CRC calculations : Yes
Used interface : Installed external ASPI interface

Used output format : User Defined Encoder
Selected bitrate : 1024 kBit/s
Quality : High
Add ID3 tag : Yes
Command line compressor : C:\Program Files (x86)\Exact Audio Copy\Flac\flac.exe
Additional command line options : -6 -V -T "ARTIST=%artist%" -T "TITLE=%title%" -T "ALBUM=%albumtitle%" -T "DATE=%year%" -T "TRACKNUMBER=%tracknr%" -T "GENRE=%genre%" -T "COMMENT=%comment%" -T "BAND=%albuminterpret%" -T "COMPOSER=%composer%" %haslyrics%--tag-from-file=LYRICS="%lyricsfile%"%haslyrics% -T "DISCNUMBER=%cdnumber%" -T "TOTALDISCS=%totalcds%" -T "TOTALTRACKS=%numtracks%" %hascover%--picture="%coverfile%"%hascover% %source% -o %dest%


TOC of the extracted CD

Track | Start | Length | Start sector | End sector
---------------------------------------------------------
1 | 0:00.00 | 3:59.67 | 0 | 17991
2 | 3:59.67 | 3:22.43 | 17992 | 33184
3 | 7:22.35 | 3:29.55 | 33185 | 48914
4 | 10:52.15 | 3:15.35 | 48915 | 63574
5 | 14:07.50 | 4:19.27 | 63575 | 83026
6 | 18:27.02 | 2:43.33 | 83027 | 95284
7 | 21:10.35 | 3:06.12 | 95285 | 109246
8 | 24:16.47 | 3:56.20 | 109247 | 126966
9 | 28:12.67 | 3:17.40 | 126967 | 141781


Range status and errors

Selected range

Filename C:\mm\Donna Summer\1974(1999) - Lady Of The Night [REP 4767-WG]\Donna Summer - Lady Of The Night.wav

Peak level 100.0 %
Extraction speed 8.1 X
Range quality 99.9 %
Test CRC B91F276C
Copy CRC B91F276C
Copy OK

No errors occurred


AccurateRip summary

Track 1 cannot be verified as accurate (confidence 13) [B2D86423], AccurateRip returned [7ED6448B] (AR v2)
Track 2 cannot be verified as accurate (confidence 13) [9209CD73], AccurateRip returned [280C6DCC] (AR v2)
Track 3 cannot be verified as accurate (confidence 13) [4FC97574], AccurateRip returned [0CB0745B] (AR v2)
Track 4 cannot be verified as accurate (confidence 13) [58BBDACE], AccurateRip returned [613895AF] (AR v2)
Track 5 cannot be verified as accurate (confidence 14) [2CA8E634], AccurateRip returned [CC12E1BF] (AR v2)
Track 6 cannot be verified as accurate (confidence 13) [38A301F9], AccurateRip returned [7CC5E8F7] (AR v2)
Track 7 cannot be verified as accurate (confidence 12) [3C80184A], AccurateRip returned [84B0DBE9] (AR v2)
Track 8 cannot be verified as accurate (confidence 13) [46626833], AccurateRip returned [C4E80BEE] (AR v2)
Track 9 cannot be verified as accurate (confidence 13) [8A530AC1], AccurateRip returned [150E4DE2] (AR v2)

No tracks could be verified as accurate
You may have a different pressing from the one(s) in the database

End of status report

---- CUETools DB Plugin V2.1.6

[CTDB TOCID: 6LDRkcXYI58ahWddpn275InqbU0-] found
Submit result: 6LDRkcXYI58ahWddpn275InqbU0- has been confirmed
Track | CTDB Status
1 | (7/7) Accurately ripped
2 | (7/7) Accurately ripped
3 | (7/7) Accurately ripped
4 | (7/7) Accurately ripped
5 | (7/7) Accurately ripped
6 | (7/7) Accurately ripped
7 | (7/7) Accurately ripped
8 | (7/7) Accurately ripped
9 | (7/7) Accurately ripped
[свернуть]

Файл CUE

REM GENRE Pop
REM DATE 1974
REM DISCID 76076209
REM COMMENT "ExactAudioCopy v1.1"
PERFORMER "Donna Summer"
TITLE "Lady Of The Night"
FILE "Donna Summer - Lady Of The Night.flac" WAVE
TRACK 01 AUDIO
TITLE "Lady Of The Night"
PERFORMER "Donna Summer"
INDEX 01 00:00:00
TRACK 02 AUDIO
TITLE "Born To Die"
PERFORMER "Donna Summer"
INDEX 01 03:59:67
TRACK 03 AUDIO
TITLE "Friends"
PERFORMER "Donna Summer"
INDEX 01 07:22:35
TRACK 04 AUDIO
TITLE "Domino"
PERFORMER "Donna Summer"
INDEX 01 10:52:15
TRACK 05 AUDIO
TITLE "The Hostage"
PERFORMER "Donna Summer"
INDEX 01 14:07:50
TRACK 06 AUDIO
TITLE "Wounded"
PERFORMER "Donna Summer"
INDEX 01 18:27:02
TRACK 07 AUDIO
TITLE "Little Miss Fit"
PERFORMER "Donna Summer"
INDEX 01 21:10:35
TRACK 08 AUDIO
TITLE "Let's Work Together Now"
PERFORMER "Donna Summer"
INDEX 01 24:16:47
TRACK 09 AUDIO
TITLE "Sing Along (Sad Song)"
PERFORMER "Donna Summer"
INDEX 01 28:12:67
[свернуть]

Лог проверки качества

AUDIOCHECKER v2.0 beta (build 457) - by Dester -
~~~~~~~~~~~~~~~~~~~~~~~~~~~~~~~~~~
-=== НЕ РЕДАКТИРУЙТЕ ЭТОТ ФАЙЛ! ===-

Путь: ...\1974(1999) - Lady Of The Night [REP 4767-WG]

1 -=- Donna Summer - Lady Of The Night.flac -=- CDDA (100%)

100630900
[свернуть]

Спектр частот

[свернуть]

Скачать Donna Summer - Lady Of The Night



password: sergych
[свернуть]
My opinion of release: 10/10
__________________
TAIFUN.Wings of Soul


Последний раз редактировалось sergych, 15.07.2018 в 08:24. Причина: сменил ссылку из-за личеров
Вверх
Пользователь сказал cпасибо:
Chert (25.07.2016)
Похожие темы
Тема Автор Раздел Ответов Последнее сообщение
Сборник Donna Summer - The Donna Summer Anthology sergych Disco 11 21.05.2017 20:48
Альбом Donna Summer - Donna Summer sergych Disco 0 22.06.2016 23:11
Сборник Donna Summer - The Best Of Donna Summer {20th Century Masters. The Millennium Collection} sergych Disco 0 01.11.2015 14:37
Donna Summer - The Journey: The Very Best of Donna Summer sergych Disco 0 13.07.2008 14:37
Donna Summer sergych Club & Electronic Music [FAQ] 0 13.06.2008 17:59


Метки
1974 , 1999 , dance , disco , donna summer , lady of the night , pop , диско

Опции темы

Ваши права в разделе
Вы не можете создавать новые темы
Вы не можете отвечать в темах
Вы не можете прикреплять вложения
Вы не можете редактировать свои сообщения

Быстрый переход



Текущее время: 11:27. Часовой пояс GMT +3.
Powered by vBulletin® Version 3.8.10
Copyright ©2000 - 2018, vBulletin Solutions, Inc. Перевод: zCarot
© 2008 - 2018 Taifun With Song
Яндекс.Метрика