TAIFUN With Song
Навигация
Вернуться   TAIFUN With Song > Music (обменник) > Club & Electronic Music > Disco
Расширенный поиск
Disco Один из самых популярных танцевальных музыкальных стилей 70-х годов. Цель этой музыки была одна: любыми способами заставить людей выйти на танцплощадку, поэтому Disco преуспело главным образом как студийное творчество, увековеченное на пластинках, а далеко не как живые концертные шоу. Почти для всех произведений Disco характерен монотонный акцентированный ритм, фоновое звучание ведущих инструментов группы или оркестра (гитары, струнные, духовые) и достаточно выразительный вокал.

А знаете ли Вы, что...
Какая песня, часто приписываемая Элвису Пресли, никогда им не записывалась?
«Песню «Only You» часто приписывают Элвису Пресли, хотя на самом деле наиболее известными её исполнителями является группа «The Platters». Элвис пел «Only You» на некоторых концертах, но не существует ни одной аудио- или видеозаписи этой композиции в его исполнении.»
 
Опции темы

  #1
Старый 03.05.2008, 19:56
sergych
Координатор
Досье
 
Аватар для sergych
Релиз Donna Summer - Bad Girls


1979 - Donna Summer - Bad Girls




Исполнитель/Artist: Donna Summer
Альбом/Album: Bad Girls
Год/Year: 1979
Жанр/Genre: Pop, dance, disco
Рекорд-лейбл/Record label: PolyGram Records / Casablanca Records
Номер в каталоге/Catalogue #: 822 557-2 M-1
Формат/Format: MPEG Layer-3 (*.mp3)
Качество/Quality: CBR 256 kbps
Тип рипа/RIP Type: tracks
Продолжительность/Length: 01:11:26
Источник/Source: Из интернета
Размер/Size: 149.3 MB

Сканы в комплекте
Тексты песен и обложка включены в теги треков

Треклист

01 - Hot Stuff
02 - Bad Girls
03 - Love Will Always Find You
04 - Walk Away
05 - Dim All The Lights
06 - Journey To The Center Of Your Heart
07 - One Night In A Lifetime
08 - Can't Get To Sleep At Night
09 - On My Honour
10 - There Will Always Be A You
11 - All Through The Night
12 - My Baby Understands
13 - Our Love
14 - Lucky
15 - Sunset People
[свернуть]

Скачать Donna Summer - Bad Girls



password: sergych
[свернуть]
My opinion of release: 10/10
__________________
TAIFUN.Wings of Soul


Последний раз редактировалось sergych, 01.01.2016 в 10:28. Причина: перезаливка
Вверх
  #2
Старый 15.05.2016, 13:30
sergych
Координатор
Досье
 
Аватар для sergych
Релиз Re: Donna Summer - Bad Girls


1979 - Donna Summer - Bad Girls




Исполнитель/Artist: Donna Summer
Альбом/Album: Bad Girls
Год/Year: 1979
Жанр/Genre: Pop, dance, disco
Страна/Country: Соединённые Штаты
Рекорд-лейбл/Record label: PolyGram Record
Номер в каталоге/Catalogue #: 822 557-2 M-1
Формат/Format: Free Lossless Audio Codec (*.flac)
Качество/Quality: Lossless
Тип рипа/RIP Type: image+.cue
Продолжительность/Length: 01:11:28
Источник/Source: Собственный рип
Размер/Size: 454.1 MB

Сканы в комплекте

Треклист

01. Hot Stuff [0:05:14.68]
02. Bad Girls [0:04:55.07]
03. Love Will Always Find You [0:03:59.03]
04. Walk Away [0:04:29.22]
05. Dim All The Lights [0:04:41.00]
06. Journey To The Center Of Your Heart [0:04:36.38]
07. One Night In A Lifetime [0:04:12.12]
08. Can't Get To Sleep At Night [0:04:42.45]
09. On My Honor [0:03:34.53]
10. There Will Always Be A You [0:05:05.52]
11. All Through The Night [0:06:01.15]
12. My Baby Understands [0:03:58.28]
13. Our Love [0:04:53.02]
14. Lucky [0:04:37.38]
15. Sunset People [0:06:27.27]
[свернуть]

youtube.com

[свернуть]

Исполнители/Performers

Donna Summer - lead and background vocals, composition, production
Giorgio Moroder - bass, synthesizer, guitar, composition, production
Pete Bellotte - bass, composition, production
Harold Faltermeyer - bass, composition, drums, keyboards, synclavier
Bruce Sudano - synthesizer and composition
Joe Esposito - background vocals and composition
Keith Forsey - background vocals, drums, percussion, and composition
Jeff "Skunk" Baxter - guitar (solo on "Hot Stuff")
Bob Conti - percussion, composition
Edward "Eddie" Hokenson - composition
Jai Winding – piano
Jay Graydon and Paul Jackson, Jr. – guitar
Al Perkins – pull and steel guitar
Sid Sharp – strings
Scott Edwards and Bob Glaub – bass
Gary Grant, Jerry Hey, and Steve Madaio – trumpet
Gary Herbig – saxophone
Dick Hyde and Bill Reichenbach – trombone
Stephanie Straill, Julia and Maxine Willard, Pamela Quinlan – backing vocals
[свернуть]

EAC лог

Exact Audio Copy V1.1 from 23. June 2015

EAC extraction logfile from 14. May 2016, 18:52

Donna Summer / Bad Girls

Used drive : slimtype eTDU108 1 Adapter: 1 ID: 0

Read mode : Secure
Utilize accurate stream : Yes
Defeat audio cache : Yes
Make use of C2 pointers : No

Read offset correction : 6
Overread into Lead-In and Lead-Out : No
Fill up missing offset samples with silence : Yes
Delete leading and trailing silent blocks : No
Null samples used in CRC calculations : Yes
Used interface : Installed external ASPI interface

Used output format : User Defined Encoder
Selected bitrate : 1024 kBit/s
Quality : High
Add ID3 tag : Yes
Command line compressor : C:\Program Files (x86)\Exact Audio Copy\Flac\flac.exe
Additional command line options : -6 -V -T "ARTIST=%artist%" -T "TITLE=%title%" -T "ALBUM=%albumtitle%" -T "DATE=%year%" -T "TRACKNUMBER=%tracknr%" -T "GENRE=%genre%" -T "COMMENT=%comment%" -T "BAND=%albuminterpret%" -T "COMPOSER=%composer%" %haslyrics%--tag-from-file=LYRICS="%lyricsfile%"%haslyrics% -T "DISCNUMBER=%cdnumber%" -T "TOTALDISCS=%totalcds%" -T "TOTALTRACKS=%numtracks%" %hascover%--picture="%coverfile%"%hascover% %source% -o %dest%


TOC of the extracted CD

Track | Start | Length | Start sector | End sector
---------------------------------------------------------
1 | 0:00.32 | 5:14.68 | 32 | 23649
2 | 5:15.25 | 4:55.07 | 23650 | 45781
3 | 10:10.32 | 3:59.03 | 45782 | 63709
4 | 14:09.35 | 4:29.22 | 63710 | 83906
5 | 18:38.57 | 4:41.00 | 83907 | 104981
6 | 23:19.57 | 4:36.38 | 104982 | 125719
7 | 27:56.20 | 4:12.12 | 125720 | 144631
8 | 32:08.32 | 4:42.45 | 144632 | 165826
9 | 36:51.02 | 3:34.53 | 165827 | 181929
10 | 40:25.55 | 5:05.52 | 181930 | 204856
11 | 45:31.32 | 6:01.15 | 204857 | 231946
12 | 51:32.47 | 3:58.28 | 231947 | 249824
13 | 55:31.00 | 4:53.02 | 249825 | 271801
14 | 60:24.02 | 4:37.38 | 271802 | 292614
15 | 65:01.40 | 6:27.27 | 292615 | 321666


Range status and errors

Selected range

Filename C:\mm\Donna Summer\1979 - Bad Girls [822 557-2 M-1]\Donna Summer - Bad Girls.wav

Peak level 100.0 %
Extraction speed 5.0 X
Range quality 99.9 %
Test CRC 427E4DCB
Copy CRC 427E4DCB
Copy OK

No errors occurred


AccurateRip summary

Track 1 accurately ripped (confidence 14) [E5DF6295] (AR v2)
Track 2 accurately ripped (confidence 14) [CBAC58D1] (AR v2)
Track 3 accurately ripped (confidence 14) [C143B175] (AR v2)
Track 4 accurately ripped (confidence 14) [389C07D6] (AR v2)
Track 5 accurately ripped (confidence 14) [9775E2ED] (AR v2)
Track 6 accurately ripped (confidence 14) [C2E2149D] (AR v2)
Track 7 accurately ripped (confidence 14) [A54D5772] (AR v2)
Track 8 accurately ripped (confidence 14) [75C0BEBB] (AR v2)
Track 9 accurately ripped (confidence 14) [204967BD] (AR v2)
Track 10 accurately ripped (confidence 14) [770E6D6E] (AR v2)
Track 11 accurately ripped (confidence 14) [8EA5E8CC] (AR v2)
Track 12 accurately ripped (confidence 14) [61A25C78] (AR v2)
Track 13 accurately ripped (confidence 14) [33BBEC4A] (AR v2)
Track 14 accurately ripped (confidence 13) [5CBBE238] (AR v2)
Track 15 accurately ripped (confidence 14) [E7FFE71A] (AR v2)

All tracks accurately ripped

End of status report
[свернуть]

Файл CUE

REM GENRE Disco
REM DATE 1979
REM DISCID B310C00F
REM COMMENT "ExactAudioCopy v1.1"
PERFORMER "Donna Summer"
TITLE "Bad Girls"
FILE "Donna Summer - Bad Girls.flac" WAVE
TRACK 01 AUDIO
TITLE "Hot Stuff"
PERFORMER "Donna Summer"
INDEX 00 00:00:00
INDEX 01 00:00:32
TRACK 02 AUDIO
TITLE "Bad Girls"
PERFORMER "Donna Summer"
INDEX 01 05:15:25
TRACK 03 AUDIO
TITLE "Love Will Always Find You"
PERFORMER "Donna Summer"
INDEX 01 10:10:32
TRACK 04 AUDIO
TITLE "Walk Away"
PERFORMER "Donna Summer"
INDEX 01 14:09:35
TRACK 05 AUDIO
TITLE "Dim All The Lights"
PERFORMER "Donna Summer"
INDEX 01 18:38:57
TRACK 06 AUDIO
TITLE "Journey To The Center Of Your Heart"
PERFORMER "Donna Summer"
INDEX 01 23:19:57
TRACK 07 AUDIO
TITLE "One Night In A Lifetime"
PERFORMER "Donna Summer"
INDEX 01 27:56:20
TRACK 08 AUDIO
TITLE "Can't Get To Sleep At Night"
PERFORMER "Donna Summer"
INDEX 01 32:08:32
TRACK 09 AUDIO
TITLE "On My Honor"
PERFORMER "Donna Summer"
INDEX 01 36:51:02
TRACK 10 AUDIO
TITLE "There Will Always Be A You"
PERFORMER "Donna Summer"
INDEX 01 40:25:55
TRACK 11 AUDIO
TITLE "All Through The Night"
PERFORMER "Donna Summer"
INDEX 00 45:30:20
INDEX 01 45:31:32
TRACK 12 AUDIO
TITLE "My Baby Understands"
PERFORMER "Donna Summer"
INDEX 00 51:30:60
INDEX 01 51:32:47
TRACK 13 AUDIO
TITLE "Our Love"
PERFORMER "Donna Summer"
INDEX 01 55:31:00
TRACK 14 AUDIO
TITLE "Lucky"
PERFORMER "Donna Summer"
INDEX 01 60:24:02
TRACK 15 AUDIO
TITLE "Sunset People"
PERFORMER "Donna Summer"
INDEX 01 65:01:40
[свернуть]

Лог проверки качества

AUDIOCHECKER v2.0 beta (build 457) - by Dester -
~~~~~~~~~~~~~~~~~~~~~~~~~~~~~~~~~~
-=== НЕ РЕДАКТИРУЙТЕ ЭТОТ ФАЙЛ! ===-

Путь: ...\1979 - Bad Girls [822 557-2 M-1]

1 -=- Donna Summer - Bad Girls.flac -=- MPEG (95%)

169281380
[свернуть]

Спектр частот

[свернуть]

Скачать Donna Summer - Bad Girls



password: sergych
[свернуть]
My opinion of release: 10/10
__________________
TAIFUN.Wings of Soul

Вверх
Пользователь сказал cпасибо:
Chert (17.05.2016)
Похожие темы
Тема Автор Раздел Ответов Последнее сообщение
Сборник Donna Summer - The Donna Summer Anthology sergych Disco 11 21.05.2017 20:48
Сборник Donna Summer - The Best Of Donna Summer {20th Century Masters. The Millennium Collection} sergych Disco 0 01.11.2015 14:37
Donna Summer - The Journey: The Very Best of Donna Summer sergych Disco 0 13.07.2008 14:37
Donna Summer sergych Club & Electronic Music [FAQ] 0 13.06.2008 17:59


Метки
1979 , bad girls , dance , disco , donna summer , pop , диско

Опции темы

Ваши права в разделе
Вы не можете создавать новые темы
Вы не можете отвечать в темах
Вы не можете прикреплять вложения
Вы не можете редактировать свои сообщения

Быстрый переход



Текущее время: 12:06. Часовой пояс GMT +3.
Powered by vBulletin® Version 3.8.10
Copyright ©2000 - 2018, vBulletin Solutions, Inc. Перевод: zCarot
© 2008 - 2018 Taifun With Song
Яндекс.Метрика