1
[Альбом] KISS - Dynasty - TAIFUN With Song
TAIFUN With Song
Навигация
Вернуться   TAIFUN With Song > Music (обменник) > Rock > Hard Rock
Расширенный поиск
Hard Rock То, что может восприниматься слушателем как «тяжесть» в хард-роке, достигается, в частности, за счет специфического звучания электрогитары (с такими эффектами, как например, дисторшн и овердрайв) и работы ритм-секции. «Классический» хард-рок обрёл формы в конце 1960-х — начале 1970-х годов в Великобритании. Классический хард-рок отличается от хеви-металла более мелодичным звучанием.

А знаете ли Вы, что...
Кто начал писать музыку в 5 лет?
«Вольфганг Амадей Моцарт начал сочинять музыку в 5 лет.»
 
Опции темы

  #1
Старый 30.01.2015, 19:08
sergych
Координатор
Досье
 
Аватар для sergych
Релиз KISS - Dynasty


1979 - KISS - Dynasty




Исполнитель/Artist: KISS
Альбом/Album: Dynasty
Год/Year: 1979
Жанр/Genre: Hard rock, heavy metal, glam metal
Страна/Country: Аргентина
Рекорд-лейбл/Record label: Casablanca Record / Universal Music
Номер в каталоге/Catalogue #: 8127702
Формат/Format: Free Lossless Audio Codec (*.flac)
Качество/Quality: Lossless
Тип рипа/RIP Type: image+.cue
Продолжительность/Length: 00:38:38
Источник/Source: Собственный рип
Размер/Size: 277.4 MB

Сканы в комплекте

Треклист

01. 1 I Was Made For Lovin' You [0:04:29.72]
02. 2 2000 Man [0:04:53.58]
03. 3 Sure Know Something [0:03:58.22]
04. 4 Dirty Livin' [0:04:16.52]
05. 5 Charisma [0:04:24.28]
06. 6 Magic Touch [0:04:38.73]
07. 7 Hard Times [0:03:31.42]
08. 8 X Ray Eyes [0:03:44.08]
09. 9 Save Your Love [0:04:40.02]
[свернуть]

youtube.com

[свернуть]

Исполнители/Performers

Paul Stanley - vocals, rhythm guitar (bass guitar on "I Was Made for Lovin' You" and "Magic Touch", lead guitar on "Sure Know Something")
Ace Frehley - vocals, lead guitar (all guitars on "2,000 Man", bass guitar on "2,000 Man", "Hard Times" and "Save Your Love")
Gene Simmons - vocals, bass guitar
Peter Criss - drums, percussion and lead vocals only on "Dirty Livin'"

Additional
Anton Fig - drums on all tracks except "Dirty Livin'"
Vini Poncia - backing vocals, keyboards
[свернуть]

EAC лог

Exact Audio Copy V1.0 beta 3 from 29. August 2011

EAC extraction logfile from 30. January 2015, 20:38

Kiss / Dynasty

Used drive : ATAPI iHAS124 D Adapter: 0 ID: 2

Read mode : Secure
Utilize accurate stream : Yes
Defeat audio cache : Yes
Make use of C2 pointers : No

Read offset correction : 6
Overread into Lead-In and Lead-Out : No
Fill up missing offset samples with silence : Yes
Delete leading and trailing silent blocks : No
Null samples used in CRC calculations : Yes
Used interface : Installed external ASPI interface

Used output format : User Defined Encoder
Selected bitrate : 1024 kBit/s
Quality : High
Add ID3 tag : No
Command line compressor : C:\Program Files (x86)\Exact Audio Copy\Flac\flac.exe
Additional command line options : -6 -V -T "ARTIST=%artist%" -T "TITLE=%title%" -T "ALBUM=%albumtitle%" -T "DATE=%year%" -T "TRACKNUMBER=%tracknr%" -T "GENRE=%genre%" -T "COMMENT=%comment%" -T "BAND=%albuminterpret%" -T "COMPOSER=%composer%" %haslyrics%--tag-from-file=LYRICS="%lyricsfile%"%haslyrics% -T "DISCNUMBER=%cdnumber%" -T "TOTALDISCS=%totalcds%" -T "TOTALTRACKS=%numtracks%" %hascover%--picture="%coverfile%"%hascover% %source% -o %dest%


TOC of the extracted CD

Track | Start | Length | Start sector | End sector
---------------------------------------------------------
1 | 0:00.00 | 4:29.72 | 0 | 20246
2 | 4:29.72 | 4:53.58 | 20247 | 42279
3 | 9:23.55 | 3:58.22 | 42280 | 60151
4 | 13:22.02 | 4:16.52 | 60152 | 79403
5 | 17:38.54 | 4:24.28 | 79404 | 99231
6 | 22:03.07 | 4:38.73 | 99232 | 120154
7 | 26:42.05 | 3:31.42 | 120155 | 136021
8 | 30:13.47 | 3:44.08 | 136022 | 152829
9 | 33:57.55 | 4:40.02 | 152830 | 173831


Range status and errors

Selected range

Filename C:\mm\KISS\1979 - Dynasty [8127702]\Kiss - Dynasty.wav

Peak level 100.0 %
Extraction speed 8.4 X
Range quality 100.0 %
Test CRC 251529C9
Copy CRC 251529C9
Copy OK

No errors occurred


AccurateRip summary

Track 1 not present in database
Track 2 not present in database
Track 3 not present in database
Track 4 not present in database
Track 5 not present in database
Track 6 not present in database
Track 7 not present in database
Track 8 not present in database
Track 9 not present in database

None of the tracks are present in the AccurateRip database

End of status report
[свернуть]

Файл CUE

REM GENRE Rock
REM DATE 1979
REM DISCID 62090D09
REM COMMENT "ExactAudioCopy v1.0b3"
PERFORMER "Kiss"
TITLE "Dynasty"
FILE "Kiss - Dynasty.flac" WAVE
TRACK 01 AUDIO
TITLE "1 I Was Made For Lovin' You"
PERFORMER "Kiss"
INDEX 01 00:00:00
TRACK 02 AUDIO
TITLE "2 2000 Man"
PERFORMER "Kiss"
INDEX 01 04:29:72
TRACK 03 AUDIO
TITLE "3 Sure Know Something"
PERFORMER "Kiss"
INDEX 01 09:23:55
TRACK 04 AUDIO
TITLE "4 Dirty Livin'"
PERFORMER "Kiss"
INDEX 01 13:22:02
TRACK 05 AUDIO
TITLE "5 Charisma"
PERFORMER "Kiss"
INDEX 01 17:38:54
TRACK 06 AUDIO
TITLE "6 Magic Touch"
PERFORMER "Kiss"
INDEX 01 22:03:07
TRACK 07 AUDIO
TITLE "7 Hard Times"
PERFORMER "Kiss"
INDEX 01 26:42:05
TRACK 08 AUDIO
TITLE "8 X Ray Eyes"
PERFORMER "Kiss"
INDEX 01 30:13:47
TRACK 09 AUDIO
TITLE "9 Save Your Love"
PERFORMER "Kiss"
INDEX 01 33:57:55
[свернуть]

Лог проверки качества

AUDIOCHECKER v2.0 beta (build 457) - by Dester - [Ссылки могут видеть только зарегистрированные и активированные пользователи.]
[Only registered and activated users can see links.]
~~~~~~~~~~~~~~~~~~~~~~~~~~~~~~~~~~
-=== НЕ РЕДАКТИРУЙТЕ ЭТОТ ФАЙЛ! ===-

Путь: ...\1979 - Dynasty [8127702]

1 -=- Kiss - Dynasty.flac -=- CDDA (100%)

231875412
[свернуть]

Спектр частот

[свернуть]

Скачать KISS - Dynasty

[Ссылки могут видеть только зарегистрированные и активированные пользователи.]
[Only registered and activated users can see links.]

password: sergych
[свернуть]
My opinion of release: 9/10
__________________
TAIFUN.Wings of Soul

Вверх
Пользователь сказал cпасибо:
TAIFUN (31.01.2015)
Похожие темы
Тема Автор Раздел Ответов Последнее сообщение
Релиз Kiss - Monster PUPOKIN Hard Rock 1 06.10.2012 15:39
Альбом KISS - Hot In The Shade PUPOKIN Hard Rock 0 22.02.2011 15:00
Альбом KISS - Alive 35 PUPOKIN Hard Rock 0 17.06.2010 10:07
Альбом E-ROTIC - KISS ME PUPOKIN Eurodance 0 22.01.2009 12:38
Kiss Stanislav1989 Rock [FAQ] 0 13.11.2008 09:57


Метки
1979 , dynasty , glam metal , hard rock , heavy metal , kiss

Опции темы

Ваши права в разделе
Вы не можете создавать новые темы
Вы не можете отвечать в темах
Вы не можете прикреплять вложения
Вы не можете редактировать свои сообщения

Быстрый переход



Текущее время: 20:01. Часовой пояс GMT +3.
Powered by vBulletin® Version 3.8.10
Copyright ©2000 - 2018, vBulletin Solutions, Inc. Перевод: zCarot
© 2008 - 2018 Taifun With Song
Яндекс.Метрика