TAIFUN With Song
Навигация
А знаете ли Вы, что...
Как выбрали длительность звучания компакт-диска?
«Вместимость компакт-диска была выбрана японскими разработчиками так, чтобы на нём полностью поместилась девятая симфония Бетховена — любимое произведение вице-президента Сони. Хотя итоговая длительность диска в 74 минуты, возникшая в результате разных технических согласований, была всё же на полминуты меньше длительности симфонии.»
 
Опции темы

  #1
Старый 04.11.2017, 10:13
sergych
Координатор
Досье
 
Аватар для sergych
Релиз Natasha Bedingfield - N.B.


2007 - Natasha Bedingfield - N.B.




Исполнитель/Artist: Natasha Bedingfield
Альбом/Album: N.B.
Год/Year: 2007
Жанр/Genre: Pop, hip hop, soul, R&B
Страна/Country: Австрия
Рекорд-лейбл/Record label: Sony Music
Номер в каталоге/Catalogue #: 88697077542
Формат/Format: Free Lossless Audio Codec (*.flac)
Качество/Quality: Lossless
Тип рипа/RIP Type: image+.cue
Продолжительность/Length: 01:05:35
Источник/Source: Собственный рип
Размер/Size: 423.5 MB

Сканы в комплекте

Треклист

01. How Do You Do? [0:03:41.35]
02. I Wanna Have Your Babies [0:03:36.60]
03. Soulmate [0:03:32.38]
04. Who Knows [0:03:46.28]
05. Say It Again [0:03:29.51]
06. Pirate Bones [0:03:46.49]
07. Backyard [0:03:27.01]
08. Tricky Angel [0:03:04.14]
09. When You Know You Know [0:03:47.04]
10. I Think They're Thinking (interlude) [0:04:06.00]
11. Natasha Bedingfield feat. Eve / (No More) What Ifs [0:03:48.62]
12. Not Givin' Up [0:03:57.14]
13. Still Here [0:03:22.11]
14. Smell The Roses [0:18:08.62]
[свернуть]

youtube.com

[свернуть]

Исполнители/Performers

Natasha Bedingfield – lead vocals and various instruments
Adam Levine, Danielle Brisebois, Nikola Bedingfield – backing vocals
Jessica Collins – backing vocals
Adam MacDougall, Charles Judge, Jonas Myrin – keyboards
Nick Lashley – guitar
[свернуть]

EAC лог

Exact Audio Copy V1.3 from 2. September 2016

EAC extraction logfile from 3. November 2017, 22:28

Natasha Bedingfield / N.B.

Used drive : ATAPI iHAS124 D Adapter: 0 ID: 2

Read mode : Secure
Utilize accurate stream : Yes
Defeat audio cache : Yes
Make use of C2 pointers : No

Read offset correction : 6
Overread into Lead-In and Lead-Out : No
Fill up missing offset samples with silence : Yes
Delete leading and trailing silent blocks : No
Null samples used in CRC calculations : Yes
Used interface : Installed external ASPI interface

Used output format : User Defined Encoder
Selected bitrate : 1024 kBit/s
Quality : High
Add ID3 tag : No
Command line compressor : C:\Program Files (x86)\Exact Audio Copy\Flac\flac.exe
Additional command line options : -6 -V -T "ARTIST=%artist%" -T "TITLE=%title%" -T "ALBUM=%albumtitle%" -T "DATE=%year%" -T "TRACKNUMBER=%tracknr%" -T "GENRE=%genre%" -T "COMMENT=%comment%" -T "BAND=%albuminterpret%" -T "ALBUMARTIST=%albuminterpret%" -T "COMPOSER=%composer%" %haslyrics%--tag-from-file=LYRICS="%lyricsfile%"%haslyrics% -T "DISCNUMBER=%cdnumber%" -T "TOTALDISCS=%totalcds%" -T "TOTALTRACKS=%numtracks%" %hascover%--picture="%coverfile%"%hascover% %source% -o %dest%


TOC of the extracted CD

Track | Start | Length | Start sector | End sector
---------------------------------------------------------
1 | 0:00.00 | 3:41.35 | 0 | 16609
2 | 3:41.35 | 3:36.60 | 16610 | 32869
3 | 7:18.20 | 3:32.38 | 32870 | 48807
4 | 10:50.58 | 3:46.28 | 48808 | 65785
5 | 14:37.11 | 3:29.51 | 65786 | 81511
6 | 18:06.62 | 3:46.49 | 81512 | 98510
7 | 21:53.36 | 3:27.01 | 98511 | 114036
8 | 25:20.37 | 3:04.14 | 114037 | 127850
9 | 28:24.51 | 3:47.04 | 127851 | 144879
10 | 32:11.55 | 4:06.00 | 144880 | 163329
11 | 36:17.55 | 3:48.62 | 163330 | 180491
12 | 40:06.42 | 3:57.14 | 180492 | 198280
13 | 44:03.56 | 3:22.11 | 198281 | 213441
14 | 47:25.67 | 18:08.62 | 213442 | 295103
15 | 68:06.54 | 1:46.11 | 306504 | 314464


Range status and errors

Selected range

Filename C:\mm\Natasha Bedingfield\2007 - N.B. [88697077542]\Natasha Bedingfield - N.B..wav

Peak level 100.0 %
Extraction speed 9.9 X
Range quality 100.0 %
Test CRC 196D59C1
Copy CRC 196D59C1
Copy OK

No errors occurred


AccurateRip summary

Track 1 accurately ripped (confidence 58) [53947591] (AR v2)
Track 2 accurately ripped (confidence 57) [49230423] (AR v2)
Track 3 accurately ripped (confidence 57) [E88E3297] (AR v2)
Track 4 accurately ripped (confidence 58) [4CCDE8CE] (AR v2)
Track 5 accurately ripped (confidence 57) [453CDAC7] (AR v2)
Track 6 accurately ripped (confidence 58) [85F3900F] (AR v2)
Track 7 accurately ripped (confidence 58) [4B3E751B] (AR v2)
Track 8 accurately ripped (confidence 59) [A491509E] (AR v2)
Track 9 accurately ripped (confidence 57) [AAEE26EC] (AR v2)
Track 10 accurately ripped (confidence 57) [C5AC6921] (AR v2)
Track 11 accurately ripped (confidence 58) [2F365855] (AR v2)
Track 12 accurately ripped (confidence 58) [8471D487] (AR v2)
Track 13 accurately ripped (confidence 58) [D6721482] (AR v2)
Track 14 accurately ripped (confidence 58) [1CD815B7] (AR v2)

All tracks accurately ripped

End of status report

---- CUETools DB Plugin V2.1.6

[CTDB TOCID: 2dWbbv901Twxm95271SYP.rm0ks-] found
Submit result: 2dWbbv901Twxm95271SYP.rm0ks- has been confirmed
Track | CTDB Status
1 | (132/135) Accurately ripped
2 | (134/135) Accurately ripped
3 | (135/135) Accurately ripped
4 | (134/135) Accurately ripped
5 | (135/135) Accurately ripped
6 | (133/135) Accurately ripped
7 | (132/135) Accurately ripped
8 | (134/135) Accurately ripped
9 | (134/135) Accurately ripped
10 | (134/135) Accurately ripped
11 | (133/135) Accurately ripped
12 | (134/135) Accurately ripped
13 | (133/135) Accurately ripped
14 | (132/135) Accurately ripped
[свернуть]

Файл CUE

REM GENRE Jazz
REM DATE 2007
REM DISCID D410600F
REM COMMENT "ExactAudioCopy v1.3"
PERFORMER "Natasha Bedingfield"
TITLE "N.B."
REM COMPOSER ""
FILE "Natasha Bedingfield - N.B..flac" WAVE
TRACK 01 AUDIO
TITLE "How Do You Do?"
PERFORMER "Natasha Bedingfield"
REM COMPOSER ""
INDEX 01 00:00:00
TRACK 02 AUDIO
TITLE "I Wanna Have Your Babies"
PERFORMER "Natasha Bedingfield"
REM COMPOSER ""
INDEX 01 03:41:35
TRACK 03 AUDIO
TITLE "Soulmate"
PERFORMER "Natasha Bedingfield"
REM COMPOSER ""
INDEX 01 07:18:20
TRACK 04 AUDIO
TITLE "Who Knows"
PERFORMER "Natasha Bedingfield"
REM COMPOSER ""
INDEX 01 10:50:58
TRACK 05 AUDIO
TITLE "Say It Again"
PERFORMER "Natasha Bedingfield"
REM COMPOSER ""
INDEX 01 14:37:11
TRACK 06 AUDIO
TITLE "Pirate Bones"
PERFORMER "Natasha Bedingfield"
REM COMPOSER ""
INDEX 01 18:06:62
TRACK 07 AUDIO
TITLE "Backyard"
PERFORMER "Natasha Bedingfield"
REM COMPOSER ""
INDEX 01 21:53:36
TRACK 08 AUDIO
TITLE "Tricky Angel"
PERFORMER "Natasha Bedingfield"
REM COMPOSER ""
INDEX 01 25:20:37
TRACK 09 AUDIO
TITLE "When You Know You Know"
PERFORMER "Natasha Bedingfield"
REM COMPOSER ""
INDEX 01 28:24:51
TRACK 10 AUDIO
TITLE "I Think They're Thinking (interlude)"
PERFORMER "Natasha Bedingfield"
REM COMPOSER ""
INDEX 01 32:11:55
TRACK 11 AUDIO
TITLE "(No More) What Ifs"
PERFORMER "Natasha Bedingfield feat. Eve"
REM COMPOSER ""
INDEX 01 36:17:55
TRACK 12 AUDIO
TITLE "Not Givin' Up"
PERFORMER "Natasha Bedingfield"
REM COMPOSER ""
INDEX 01 40:06:42
TRACK 13 AUDIO
TITLE "Still Here"
PERFORMER "Natasha Bedingfield"
REM COMPOSER ""
INDEX 01 44:03:56
TRACK 14 AUDIO
TITLE "Smell The Roses"
PERFORMER "Natasha Bedingfield"
REM COMPOSER ""
INDEX 01 47:25:67
[свернуть]

Лог проверки качества

AUDIOCHECKER v2.0 beta (build 457) - by Dester -
~~~~~~~~~~~~~~~~~~~~~~~~~~~~~~~~~~
-=== НЕ РЕДАКТИРУЙТЕ ЭТОТ ФАЙЛ! ===-

Путь: ...\2007 - N.B. [88697077542]

1 -=- Natasha Bedingfield - N.B..flac -=- CDDA (100%)

102652836
[свернуть]

Спектр частот

[свернуть]

Скачать Natasha Bedingfield - N.B.



password: sergych
[свернуть]

Контрольная сумма (хеш-сумма) архива

MD5: 650b198d95c2513d1f77dac87fb58eac
[свернуть]
My opinion of release: 10/10
__________________
TAIFUN.Wings of Soul

Вверх
2 пользователя(ей) сказали cпасибо:
johnsilver (05.11.2017), swint68 (05.11.2017)
  #2
Старый 05.11.2017, 08:16
swint68
Меломан
Досье
 
Аватар для swint68
По умолчанию Re: Natasha Bedingfield - N.B.

СУПЕР!

Вверх
Пользователь сказал cпасибо:
sergych (06.11.2017)
Похожие темы
Тема Автор Раздел Ответов Последнее сообщение
Альбом Natasha Bedingfield - Pocketful Of Sunshine sergych Зарубежная Поп-Музыка 2 29.09.2017 18:54
Релиз Natasha Bedingfield - Strip Me Away PUPOKIN Зарубежная Поп-Музыка 0 15.05.2011 08:22
Natasha St-Pier - Embrasse Moi PUPOKIN Зарубежная Поп-Музыка 0 29.11.2008 13:54
Natasha Rostova PUPOKIN House 0 13.10.2008 10:10


Метки
2007 , hip hop , n.b. , natasha bedingfield , pop , r&b , soul

Опции темы

Ваши права в разделе
Вы не можете создавать новые темы
Вы не можете отвечать в темах
Вы не можете прикреплять вложения
Вы не можете редактировать свои сообщения

Быстрый переход



Текущее время: 21:06. Часовой пояс GMT +3.
Powered by vBulletin® Version 3.8.10
Copyright ©2000 - 2018, vBulletin Solutions, Inc. Перевод: zCarot
© 2008 - 2018 Taifun With Song
Яндекс.Метрика