TAIFUN With Song
Навигация
Вернуться   TAIFUN With Song > Music (обменник) > POP > Зарубежная Поп-Музыка
Расширенный поиск
А знаете ли Вы, что...
Каким образом в Древнем Китае для определения эталона длины применяли колокол?
«В Древнем Китае эталоном меры длины служил специальный колокол, настроенный на заданную высоту звучания. В другом приспособлении натягивалась струна, чтобы её звук соответствовал данной высоте, и получившаяся длина струны принималась за эталон.»
 
Опции темы

  #1
Старый 25.07.2017, 21:04
sergych
Координатор
Досье
 
Аватар для sergych
Релиз Kylie Minogue - Enjoy Yourself


1989 - Kylie Minogue - Enjoy Yourself




Исполнитель/Artist: Kylie Minogue
Альбом/Album: Enjoy Yourself
Год/Year: 1989
Жанр/Genre: pop, dance
Страна/Country: Япония
Рекорд-лейбл/Record label: PWL Records
Номер в каталоге/Catalogue #: 29B2-77
Формат/Format: Free Lossless Audio Codec (*.flac)
Качество/Quality: Lossless
Тип рипа/RIP Type: image+.cue
Продолжительность/Length: 00:32:55
Источник/Source: Собственный рип
Размер/Size: 272.5 MB

Сканы в комплекте

Треклист

01. Hand On Your Heart [0:03:54.62]
02. Wouldn't Change A Thing [0:03:17.40]
03. Never Too Late [0:03:27.70]
04. Nothing To Lose [0:03:24.65]
05. Tell Tale Signs [0:02:29.40]
06. My Secret Heart [0:02:44.43]
07. I'm Over Dreaming (Over You) [0:03:28.60]
08. Tears On My Pillow [0:02:33.52]
09. Heaven And Earth [0:03:47.38]
10. Enjoy Yourself [0:03:45.72]
[свернуть]

youtube.com

[свернуть]

Исполнители/Performers

Kylie Minogue – lead vocals, backing vocals
Jason Donovan – vocals
Mae McKenna, Miriam Stockley – backing vocals
Matt Aitken – keyboards, guitar, production, arrangements
Mike Stock – backing vocals, production, arrangements, keyboards
Ian Curnow – keyboards
Linn drum machine – drums
[свернуть]

EAC лог

Exact Audio Copy V1.3 from 2. September 2016

EAC extraction logfile from 25. July 2017, 20:50

Kylie Minogue / Enjoy Yourself

Used drive : PLEXTOR DVDR PX-716A Adapter: 1 ID: 0

Read mode : Secure
Utilize accurate stream : Yes
Defeat audio cache : Yes
Make use of C2 pointers : No

Read offset correction : 30
Overread into Lead-In and Lead-Out : No
Fill up missing offset samples with silence : Yes
Delete leading and trailing silent blocks : No
Null samples used in CRC calculations : Yes
Used interface : Installed external ASPI interface

Used output format : User Defined Encoder
Selected bitrate : 1024 kBit/s
Quality : High
Add ID3 tag : No
Command line compressor : C:\Program Files (x86)\Exact Audio Copy\Flac\flac.exe
Additional command line options : -6 -V -T "ARTIST=%artist%" -T "TITLE=%title%" -T "ALBUM=%albumtitle%" -T "DATE=%year%" -T "TRACKNUMBER=%tracknr%" -T "GENRE=%genre%" -T "COMMENT=%comment%" -T "BAND=%albuminterpret%" -T "ALBUMARTIST=%albuminterpret%" -T "COMPOSER=%composer%" %haslyrics%--tag-from-file=LYRICS="%lyricsfile%"%haslyrics% -T "DISCNUMBER=%cdnumber%" -T "TOTALDISCS=%totalcds%" -T "TOTALTRACKS=%numtracks%" %hascover%--picture="%coverfile%"%hascover% %source% -o %dest%


TOC of the extracted CD

Track | Start | Length | Start sector | End sector
---------------------------------------------------------
1 | 0:00.00 | 3:54.62 | 0 | 17611
2 | 3:54.62 | 3:17.40 | 17612 | 32426
3 | 7:12.27 | 3:27.70 | 32427 | 48021
4 | 10:40.22 | 3:24.65 | 48022 | 63386
5 | 14:05.12 | 2:29.40 | 63387 | 74601
6 | 16:34.52 | 2:44.43 | 74602 | 86944
7 | 19:19.20 | 3:28.60 | 86945 | 102604
8 | 22:48.05 | 2:33.52 | 102605 | 114131
9 | 25:21.57 | 3:47.38 | 114132 | 131194
10 | 29:09.20 | 3:45.72 | 131195 | 148141


Range status and errors

Selected range

Filename C:\mm\Kylie Minogue\1989 - Enjoy Yourself [29B2-77]\Kylie Minogue - Enjoy Yourself.wav

Peak level 100.0 %
Extraction speed 9.8 X
Range quality 100.0 %
Test CRC B94628E2
Copy CRC B94628E2
Copy OK

No errors occurred

End of status report

---- CUETools DB Plugin V2.1.6

[CTDB TOCID: HZDNNkuqlcjcCgJYg7BBaMYc3u4-] found
Submit result: HZDNNkuqlcjcCgJYg7BBaMYc3u4- has been confirmed
Track | CTDB Status
1 | (17/17) Accurately ripped
2 | (17/17) Accurately ripped
3 | (17/17) Accurately ripped
4 | (17/17) Accurately ripped
5 | (17/17) Accurately ripped
6 | (17/17) Accurately ripped
7 | (17/17) Accurately ripped
8 | (17/17) Accurately ripped
9 | (17/17) Accurately ripped
10 | (17/17) Accurately ripped
[свернуть]

Файл CUE

REM GENRE Dance
REM DATE 1989
REM DISCID 7C07B70A
REM COMMENT "ExactAudioCopy v1.3"
PERFORMER "Kylie Minogue"
TITLE "Enjoy Yourself"
REM COMPOSER ""
FILE "Kylie Minogue - Enjoy Yourself.flac" WAVE
TRACK 01 AUDIO
TITLE "Hand On Your Heart"
PERFORMER "Kylie Minogue"
REM COMPOSER ""
INDEX 01 00:00:00
TRACK 02 AUDIO
TITLE "Wouldn't Change A Thing"
PERFORMER "Kylie Minogue"
REM COMPOSER ""
INDEX 00 03:52:25
INDEX 01 03:54:62
TRACK 03 AUDIO
TITLE "Never Too Late"
PERFORMER "Kylie Minogue"
REM COMPOSER ""
INDEX 00 07:09:60
INDEX 01 07:12:27
TRACK 04 AUDIO
TITLE "Nothing To Lose"
PERFORMER "Kylie Minogue"
REM COMPOSER ""
INDEX 00 10:36:02
INDEX 01 10:40:22
TRACK 05 AUDIO
TITLE "Tell Tale Signs"
PERFORMER "Kylie Minogue"
REM COMPOSER ""
INDEX 00 14:01:37
INDEX 01 14:05:12
TRACK 06 AUDIO
TITLE "My Secret Heart"
PERFORMER "Kylie Minogue"
REM COMPOSER ""
INDEX 00 16:31:47
INDEX 01 16:34:52
TRACK 07 AUDIO
TITLE "I'm Over Dreaming (Over You)"
PERFORMER "Kylie Minogue"
REM COMPOSER ""
INDEX 00 19:16:07
INDEX 01 19:19:20
TRACK 08 AUDIO
TITLE "Tears On My Pillow"
PERFORMER "Kylie Minogue"
REM COMPOSER ""
INDEX 00 22:43:25
INDEX 01 22:48:05
TRACK 09 AUDIO
TITLE "Heaven And Earth"
PERFORMER "Kylie Minogue"
REM COMPOSER ""
INDEX 00 25:18:35
INDEX 01 25:21:57
TRACK 10 AUDIO
TITLE "Enjoy Yourself"
PERFORMER "Kylie Minogue"
REM COMPOSER ""
INDEX 00 29:06:12
INDEX 01 29:09:20
[свернуть]

Лог проверки качества

AUDIOCHECKER v2.0 beta (build 457) - by Dester -
~~~~~~~~~~~~~~~~~~~~~~~~~~~~~~~~~~
-=== НЕ РЕДАКТИРУЙТЕ ЭТОТ ФАЙЛ! ===-

Путь: ...\1989 - Enjoy Yourself [29B2-77]

1 -=- Kylie Minogue - Enjoy Yourself.flac -=- MPEG (95%)

68872100
[свернуть]

Спектр частот

[свернуть]

Скачать Kylie Minogue - Enjoy Yourself



password: sergych
[свернуть]

Контрольная сумма (хеш-сумма) архива

MD5: f6ebb9a9a699ad1a7fcfd72580e96e65
[свернуть]
My opinion of release: 10/10
__________________
TAIFUN.Wings of Soul

Вверх
3 пользователя(ей) сказали cпасибо:
Показать список поблагодаривших
Похожие темы
Тема Автор Раздел Ответов Последнее сообщение
Альбом Kylie Minogue - X sergych Зарубежная Поп-Музыка 0 08.02.2015 19:20
Релиз Kylie Minogue - Performance fly123 Зарубежная Поп-Музыка 0 28.09.2011 17:01
Альбом Kylie Minogue - Kylie Hits (Japan Only) fly123 Зарубежная Поп-Музыка 0 27.08.2011 13:22
Релиз Kylie Minogue - For You, For Me Best Of Tour PUPOKIN Зарубежная Поп-Музыка 0 08.06.2009 11:17
Микс Kylie Minogue - Boombox PUPOKIN Зарубежная Поп-Музыка 0 24.11.2008 11:00


Метки
1989 , dance , enjoy yourself , kylie minogue , pop

Опции темы

Ваши права в разделе
Вы не можете создавать новые темы
Вы не можете отвечать в темах
Вы не можете прикреплять вложения
Вы не можете редактировать свои сообщения

Быстрый переход



Текущее время: 00:30. Часовой пояс GMT +3.
Powered by vBulletin® Version 3.8.10
Copyright ©2000 - 2018, vBulletin Solutions, Inc. Перевод: zCarot
© 2008 - 2018 Taifun With Song
Яндекс.Метрика