TAIFUN With Song
Навигация
Вернуться   TAIFUN With Song > Music (обменник) > Rock > Progressive Rock
Расширенный поиск
Progressive Rock Единственной универсальной характеристикой прогрессивного рока является усложнение музыкальной формы. Это проявляется в удлиннении и усложнении музыкальных пьес, тяготении к циклическим формам академической музыки; расширении репертуара используемых тембров, усложнении метра и ритма, использовании нетрадиционных для рока мелодических и гармонических решений; поэзии, уходящей от тем развлекательной музыки и тяготеющей к философским «вечным темам», фантастической и фентезийной тематике; переплетении с классической и современной академической музыкой, джазом.

А знаете ли Вы, что...
Какое музыкальное произведение планируется закончить исполнять к 2640 году?
«Среди произведений Джона Кейджа есть пьеса «Organ²/ASLSP (As SLow aS Possible)». Её типичное исполнение на фортепиано занимает от 20 до 70 минут, однако пояснение в скобках даёт указание играть пьесу настолько медленно, насколько это возможно. В связи с этим в 2001 году в церкви немецкого города Хальберштадт началось уникальное исполнение этой пьесы на органе, которое планируется завершить в 2640 году (через 639 лет после начала), а смена аккорда проходит примерно раз в год.»
 
Опции темы

  #1
Старый 11.07.2015, 16:29
sergych
Координатор
Досье
 
Аватар для sergych
Релиз Roger Waters - Flickering Flame


2002 - Roger Waters - Flickering Flame




Исполнитель/Artist: Roger Waters
Альбом/Album: Flickering Flame. The Solo Years Volume 1
Год/Year: 2002
Жанр/Genre: Rock, Psychedelic rock, Progressive Rock
Рекорд-лейбл/Record label: Columbia Records
Номер в каталоге/Catalogue #: 507906 2
Формат/Format: Free Lossless Audio Codec (*.flac)
Качество/Quality: Lossless
Тип рипа/RIP Type: image+.cue
Продолжительность/Length: 01:10:16
Источник/Source: Собственный рип
Размер/Size: 417.8 MB

Сканы в комплекте

Треклист

01. Knockin' On Heaven's Door (from the film The Dybbuk of The Holy Apple Field 1998) [0:04:06.50]
02. Too Much Rope (from Amused to Death 1992) [0:05:12.06]
03. The Tide Is Turning (from Radio K.A.O.S. 1987) [0:05:24.48]
04. Perfect Sense Part I & II (from In the Flesh – Live 2000) [0:07:22.21]
05. Three Wishes (from Amused to Death 1992) [0:06:49.24]
06. 5:06 AM (Every Stranger's Eyes) (from The Pros and Cons of Hitch Hiking 1984) [0:04:47.42]
07. Who Needs Information (from Radio K.A.O.S. 1987) [0:05:55.12]
08. Each Small Candle (from In the Flesh – Live 2000) [0:08:34.50]
09. Flickering Flame (new demo) (2001) [0:06:44.65]
10. Towers Of Faith (from When the Wind Blows 1986) [0:06:52.26]
11. Radio Waves (from Radio K.A.O.S. 1987) [0:04:31.10]
12. Lost Boys Calling (original demo) (finished version appears in the film The Legend of 1900 1999) [0:04:04.37]
[свернуть]

youtube.com

[свернуть]

EAC лог

Exact Audio Copy V1.0 beta 3 from 29. August 2011

EAC extraction logfile from 11. July 2015, 8:59

Roger Waters / Flickering Flame

Used drive : ATAPI iHAS124 D Adapter: 0 ID: 2

Read mode : Secure
Utilize accurate stream : Yes
Defeat audio cache : Yes
Make use of C2 pointers : No

Read offset correction : 6
Overread into Lead-In and Lead-Out : No
Fill up missing offset samples with silence : Yes
Delete leading and trailing silent blocks : No
Null samples used in CRC calculations : Yes
Used interface : Installed external ASPI interface

Used output format : User Defined Encoder
Selected bitrate : 1024 kBit/s
Quality : High
Add ID3 tag : No
Command line compressor : C:\Program Files (x86)\Exact Audio Copy\Flac\flac.exe
Additional command line options : -6 -V -T "ARTIST=%artist%" -T "TITLE=%title%" -T "ALBUM=%albumtitle%" -T "DATE=%year%" -T "TRACKNUMBER=%tracknr%" -T "GENRE=%genre%" -T "COMMENT=%comment%" -T "BAND=%albuminterpret%" -T "COMPOSER=%composer%" %haslyrics%--tag-from-file=LYRICS="%lyricsfile%"%haslyrics% -T "DISCNUMBER=%cdnumber%" -T "TOTALDISCS=%totalcds%" -T "TOTALTRACKS=%numtracks%" %hascover%--picture="%coverfile%"%hascover% %source% -o %dest%


TOC of the extracted CD

Track | Start | Length | Start sector | End sector
---------------------------------------------------------
1 | 0:00.00 | 4:06.50 | 0 | 18499
2 | 4:06.50 | 5:12.06 | 18500 | 41905
3 | 9:18.56 | 5:24.48 | 41906 | 66253
4 | 14:43.29 | 7:22.21 | 66254 | 99424
5 | 22:05.50 | 6:49.24 | 99425 | 130123
6 | 28:54.74 | 4:47.42 | 130124 | 151690
7 | 33:42.41 | 5:55.12 | 151691 | 178327
8 | 39:37.53 | 8:34.50 | 178328 | 216927
9 | 48:12.28 | 6:44.65 | 216928 | 247292
10 | 54:57.18 | 6:52.26 | 247293 | 278218
11 | 61:49.44 | 4:31.10 | 278219 | 298553
12 | 66:20.54 | 4:04.37 | 298554 | 316890


Range status and errors

Selected range

Filename C:\mm\Pink Floyd\Roger Waters\2002 - Flickering Flame [507906 2]\Roger Waters - Flickering Flame.wav

Peak level 100.0 %
Extraction speed 3.5 X
Range quality 100.0 %
Test CRC 308B1F8B
Copy CRC 308B1F8B
Copy OK

No errors occurred


AccurateRip summary

Track 1 accurately ripped (confidence 6) [3720DA93] (AR v2)
Track 2 accurately ripped (confidence 6) [689447A4] (AR v2)
Track 3 accurately ripped (confidence 6) [7C97534B] (AR v2)
Track 4 accurately ripped (confidence 6) [25354245] (AR v2)
Track 5 accurately ripped (confidence 6) [3AE1C5B0] (AR v2)
Track 6 accurately ripped (confidence 5) [FFB09694] (AR v2)
Track 7 accurately ripped (confidence 6) [E63D4103] (AR v2)
Track 8 accurately ripped (confidence 6) [5CDC26F3] (AR v2)
Track 9 accurately ripped (confidence 6) [32D37456] (AR v2)
Track 10 accurately ripped (confidence 6) [BD2131D0] (AR v2)
Track 11 accurately ripped (confidence 6) [52888B89] (AR v2)
Track 12 accurately ripped (confidence 5) [EC3CE5A3] (AR v2)

All tracks accurately ripped

End of status report
[свернуть]

Файл CUE

REM GENRE Rock
REM DATE 2002
REM DISCID BB10810C
REM COMMENT "ExactAudioCopy v1.0b3"
PERFORMER "Roger Waters"
TITLE "Flickering Flame"
FILE "Roger Waters - Flickering Flame.flac" WAVE
TRACK 01 AUDIO
TITLE "Knockin' On Heaven's Door"
PERFORMER "Roger Waters"
FLAGS DCP
INDEX 01 00:00:00
TRACK 02 AUDIO
TITLE "Too Much Rope"
PERFORMER "Roger Waters"
FLAGS DCP
INDEX 01 04:06:50
TRACK 03 AUDIO
TITLE "The Tide Is Turning"
PERFORMER "Roger Waters"
FLAGS DCP
INDEX 01 09:18:56
TRACK 04 AUDIO
TITLE "Perfect Sense Part I & II"
PERFORMER "Roger Waters"
FLAGS DCP
INDEX 01 14:43:29
TRACK 05 AUDIO
TITLE "Three Wishes"
PERFORMER "Roger Waters"
FLAGS DCP
INDEX 01 22:05:50
TRACK 06 AUDIO
TITLE "5:06 AM (Every Stranger's Eyes)"
PERFORMER "Roger Waters"
FLAGS DCP
INDEX 01 28:54:74
TRACK 07 AUDIO
TITLE "Who Needs Information"
PERFORMER "Roger Waters"
FLAGS DCP
INDEX 01 33:42:41
TRACK 08 AUDIO
TITLE "Each Small Candle"
PERFORMER "Roger Waters"
FLAGS DCP
INDEX 01 39:37:53
TRACK 09 AUDIO
TITLE "Flickering Flame (demo)"
PERFORMER "Roger Waters"
FLAGS DCP
INDEX 01 48:12:28
TRACK 10 AUDIO
TITLE "Towers Of Faith"
PERFORMER "Roger Waters"
FLAGS DCP
INDEX 01 54:57:18
TRACK 11 AUDIO
TITLE "Radio Waves"
PERFORMER "Roger Waters"
FLAGS DCP
INDEX 01 61:49:44
TRACK 12 AUDIO
TITLE "Lost Boys Calling (demo)"
PERFORMER "Roger Waters"
FLAGS DCP
INDEX 01 66:20:54
[свернуть]

Лог проверки качества

AUDIOCHECKER v2.0 beta (build 457) - by Dester -
~~~~~~~~~~~~~~~~~~~~~~~~~~~~~~~~~~
-=== НЕ РЕДАКТИРУЙТЕ ЭТОТ ФАЙЛ! ===-

Путь: ...\2002 - Flickering Flame [507906 2]

1 -=- Roger Waters - Flickering Flame.flac -=- CDDA (100%)

236776180
[свернуть]

Спектр частот

[свернуть]

Скачать Roger Waters - Flickering Flame



password: sergych
[свернуть]
My opinion of release: 10/10

Release info RInfo

Сборник песен Roger Waters, исполненных ранее на его соло-альбомах, а также кавер песни Bob DylanKnockin' On Heaven's Door из одноимённого фильма, и несколько демо-записей.
__________________
TAIFUN.Wings of Soul

Вверх
2 пользователя(ей) сказали cпасибо:
Malacht (12.07.2015), TAIFUN (12.07.2015)
Похожие темы
Тема Автор Раздел Ответов Последнее сообщение
Альбом Roger Waters - The Collection {Boxset} sergych Progressive Rock 5 21.08.2014 18:15
Альбом Roger Waters and Ron Geesin - Music from The Body sergych Progressive Rock 0 21.09.2013 19:32
Альбом Roger Waters - The Pros And Cons Of Hitch Hiking sergych Progressive Rock 0 18.09.2013 17:04
Live Roger Waters - The Wall. Live In Berlin sergych Progressive Rock 0 15.09.2013 20:31
Альбом Roger Waters - Amused To Death sergych Progressive Rock 1 18.09.2012 10:49


Метки
2002 , flickering flame. the solo years volume 1 , pink floyd , progressive rock , psychedelic rock , rock , roger waters

Опции темы

Ваши права в разделе
Вы не можете создавать новые темы
Вы не можете отвечать в темах
Вы не можете прикреплять вложения
Вы не можете редактировать свои сообщения

Быстрый переход



Текущее время: 04:25. Часовой пояс GMT +3.
Powered by vBulletin® Version 3.8.10
Copyright ©2000 - 2018, vBulletin Solutions, Inc. Перевод: zCarot
© 2008 - 2018 Taifun With Song
Яндекс.Метрика