TAIFUN With Song
Навигация
Вернуться   TAIFUN With Song > Music (обменник) > Другие направления музыки > Jazz и Blues
Расширенный поиск
Jazz и Blues Гибкая ритмика, импровизационное начало, гармонии и мелодии - все это Jazz. Blues - жизнеутверждающая музыка, рожденная из душевной боли

А знаете ли Вы, что...
Кто начал писать музыку в 5 лет?
«Вольфганг Амадей Моцарт начал сочинять музыку в 5 лет.»
 
Опции темы

  #1
Старый 31.01.2013, 18:09
sergych
Координатор
Досье
 
Аватар для sergych
Релиз Oscar Peterson - Oscar Peterson Plays Duke Ellington


1967/1986(1999) - Oscar Peterson - Oscar Peterson Plays Duke Ellington




Исполнитель/Artist: Oscar Peterson
Альбом/Album: Oscar Peterson Plays Duke Ellington
Год/Year: 1967/1986
Ремастеринг/Remaster: 1999
Жанр/Genre: Jazz, Swing
Страна/Country: EU
Рекорд-лейбл/Record label: Universal
Формат/Format: Free Lossless Audio Codec (*.flac)
Качество/Quality: Lossless
Тип рипа/RIP Type: tracks+.cue
Продолжительность/Length: 01:05:40
Источник/Source: Собственный рип
Размер/Size: 390.7 MB

Сканы в комплекте

Треклист

01 - Main stem
02 - In a sentimental mood
03 - Lady of the lavender mist
04 - Don't get around much anymore
05 - Satin Doll
06 - Cotton tail
07 - Medley- Perrido and Caravan
08 - I got it bad
09 - Things ain't axactly what they used to be
10 - Take the A train
[свернуть]

EAC лог

Exact Audio Copy V1.0 beta 3 from 29. August 2011

EAC extraction logfile from 31. January 2013, 20:31

Oscar Peterson / Oscar Peterson Plays Duke Ellington

Used drive : HL-DT-STDVDRAM GH22NS70 Adapter: 0 ID: 2

Read mode : Secure
Utilize accurate stream : Yes
Defeat audio cache : Yes
Make use of C2 pointers : No

Read offset correction : 667
Overread into Lead-In and Lead-Out : No
Fill up missing offset samples with silence : Yes
Delete leading and trailing silent blocks : No
Null samples used in CRC calculations : Yes
Used interface : Installed external ASPI interface
Gap handling : Appended to previous track

Used output format : User Defined Encoder
Selected bitrate : 896 kBit/s
Quality : High
Add ID3 tag : No
Command line compressor : C:\Program Files (x86)\Exact Audio Copy\FLAC\FLAC.EXE
Additional command line options : -6 -V -T "ARTIST=%artist%" -T "TITLE=%title%" -T "ALBUM=%albumtitle%" -T "DATE=%year%" -T "TRACKNUMBER=%tracknr%" -T "GENRE=%genre%" -T "COMMENT=%comment%" -T "BAND=%albuminterpret%" -T "ALBUMARTIST=%albuminterpret%" -T "COMPOSER=%composer%" %haslyrics%--tag-from-file=LYRICS="%lyricsfile%"%haslyrics% -T "DISCNUMBER=%cdnumber%" -T "TOTALDISCS=%totalcds%" -T "TOTALTRACKS=%numtracks%" %hascover%--picture="%coverfile%"%hascover% %source% -o %dest%


TOC of the extracted CD

Track | Start | Length | Start sector | End sector
---------------------------------------------------------
1 | 0:00.00 | 5:11.23 | 0 | 23347
2 | 5:11.23 | 5:10.15 | 23348 | 46612
3 | 10:21.38 | 4:16.45 | 46613 | 65857
4 | 14:38.08 | 3:13.22 | 65858 | 80354
5 | 17:51.30 | 7:11.65 | 80355 | 112744
6 | 25:03.20 | 3:14.30 | 112745 | 127324
7 | 28:17.50 | 13:27.48 | 127325 | 187897
8 | 41:45.23 | 4:59.02 | 187898 | 210324
9 | 46:44.25 | 13:04.08 | 210325 | 269132
10 | 59:48.33 | 6:05.47 | 269133 | 296554


Track 1

Filename C:\mm\Oscar Peterson\1999 - Oscar Peterson Plays Duke Ellington\01 - Main stem.wav

Pre-gap length 0:00:02.00

Peak level 99.9 %
Extraction speed 1.3 X
Track quality 100.0 %
Test CRC B84ACF9E
Copy CRC B84ACF9E
Track not present in AccurateRip database
Copy OK

Track 2

Filename C:\mm\Oscar Peterson\1999 - Oscar Peterson Plays Duke Ellington\02 - In a sentimental mood.wav

Pre-gap length 0:00:01.35

Peak level 93.8 %
Extraction speed 1.5 X
Track quality 100.0 %
Test CRC E5518743
Copy CRC E5518743
Track not present in AccurateRip database
Copy OK

Track 3

Filename C:\mm\Oscar Peterson\1999 - Oscar Peterson Plays Duke Ellington\03 - Lady of the lavender mist.wav

Pre-gap length 0:00:01.35

Peak level 99.6 %
Extraction speed 1.4 X
Track quality 99.9 %
Test CRC 2C424417
Copy CRC 2C424417
Track not present in AccurateRip database
Copy OK

Track 4

Filename C:\mm\Oscar Peterson\1999 - Oscar Peterson Plays Duke Ellington\04 - Don't get around much anymore.wav

Pre-gap length 0:00:01.40

Peak level 99.8 %
Extraction speed 1.6 X
Track quality 100.0 %
Test CRC C1D52816
Copy CRC C1D52816
Track not present in AccurateRip database
Copy OK

Track 5

Filename C:\mm\Oscar Peterson\1999 - Oscar Peterson Plays Duke Ellington\05 - Satin Doll.wav

Pre-gap length 0:00:01.47

Peak level 100.0 %
Extraction speed 1.9 X
Track quality 100.0 %
Test CRC B49BF3FE
Copy CRC B49BF3FE
Track not present in AccurateRip database
Copy OK

Track 6

Filename C:\mm\Oscar Peterson\1999 - Oscar Peterson Plays Duke Ellington\06 - Cotton tail.wav

Pre-gap length 0:00:01.67

Peak level 100.0 %
Extraction speed 1.8 X
Track quality 100.0 %
Test CRC CC41B93B
Copy CRC CC41B93B
Track not present in AccurateRip database
Copy OK

Track 7

Filename C:\mm\Oscar Peterson\1999 - Oscar Peterson Plays Duke Ellington\07 - Medley- Perrido and Caravan.wav

Pre-gap length 0:00:00.67

Peak level 100.0 %
Extraction speed 2.3 X
Track quality 100.0 %
Test CRC FB4DB92D
Copy CRC FB4DB92D
Track not present in AccurateRip database
Copy OK

Track 8

Filename C:\mm\Oscar Peterson\1999 - Oscar Peterson Plays Duke Ellington\08 - I got it bad.wav

Pre-gap length 0:00:01.38

Peak level 100.0 %
Extraction speed 2.3 X
Track quality 100.0 %
Test CRC 88109785
Copy CRC 88109785
Track not present in AccurateRip database
Copy OK

Track 9

Filename C:\mm\Oscar Peterson\1999 - Oscar Peterson Plays Duke Ellington\09 - Things ain't axactly what they used to be.wav

Pre-gap length 0:00:01.45

Peak level 100.0 %
Extraction speed 2.7 X
Track quality 100.0 %
Test CRC 068C8C01
Copy CRC 068C8C01
Track not present in AccurateRip database
Copy OK

Track 10

Filename C:\mm\Oscar Peterson\1999 - Oscar Peterson Plays Duke Ellington\10 - Take the A train.wav

Pre-gap length 0:00:01.40

Peak level 100.0 %
Extraction speed 2.7 X
Track quality 100.0 %
Test CRC 3E0395E1
Copy CRC 3E0395E1
Track not present in AccurateRip database
Copy OK


None of the tracks are present in the AccurateRip database

No errors occurred

End of status report
[свернуть]

Файл CUE

REM GENRE Jazz
REM DATE 1999
REM DISCID 820F720A
REM COMMENT "ExactAudioCopy v1.0b3"
PERFORMER "Oscar Peterson"
TITLE "Oscar Peterson Plays Duke Ellington"
FILE "01 - Main stem.wav" WAVE
TRACK 01 AUDIO
TITLE "Main stem"
PERFORMER "Oscar Peterson"
INDEX 01 00:00:00
TRACK 02 AUDIO
TITLE "In a sentimental mood"
PERFORMER "Oscar Peterson"
INDEX 00 05:09:63
FILE "02 - In a sentimental mood.wav" WAVE
INDEX 01 00:00:00
TRACK 03 AUDIO
TITLE "Lady of the lavender mist"
PERFORMER "Oscar Peterson"
INDEX 00 05:08:55
FILE "03 - Lady of the lavender mist.wav" WAVE
INDEX 01 00:00:00
TRACK 04 AUDIO
TITLE "Don't get around much anymore"
PERFORMER "Oscar Peterson"
INDEX 00 04:15:05
FILE "04 - Don't get around much anymore.wav" WAVE
INDEX 01 00:00:00
TRACK 05 AUDIO
TITLE "Satin Doll"
PERFORMER "Oscar Peterson"
INDEX 00 03:11:50
FILE "05 - Satin Doll.wav" WAVE
INDEX 01 00:00:00
TRACK 06 AUDIO
TITLE "Cotton tail"
PERFORMER "Oscar Peterson"
INDEX 00 07:09:73
FILE "06 - Cotton tail.wav" WAVE
INDEX 01 00:00:00
TRACK 07 AUDIO
TITLE "Medley: Perrido and Caravan"
PERFORMER "Oscar Peterson"
INDEX 00 03:13:38
FILE "07 - Medley- Perrido and Caravan.wav" WAVE
INDEX 01 00:00:00
TRACK 08 AUDIO
TITLE "I got it bad"
PERFORMER "Oscar Peterson"
INDEX 00 13:26:10
FILE "08 - I got it bad.wav" WAVE
INDEX 01 00:00:00
TRACK 09 AUDIO
TITLE "Things ain't axactly what they used to be"
PERFORMER "Oscar Peterson"
INDEX 00 04:57:32
FILE "09 - Things ain't axactly what they used to be.wav" WAVE
INDEX 01 00:00:00
TRACK 10 AUDIO
TITLE "Take the A train"
PERFORMER "Oscar Peterson"
INDEX 00 13:02:43
FILE "10 - Take the A train.wav" WAVE
INDEX 01 00:00:00
[свернуть]

Лог проверки качества

AUDIOCHECKER v2.0 beta (build 457) - by Dester -
~~~~~~~~~~~~~~~~~~~~~~~~~~~~~~~~~~
-=== НЕ РЕДАКТИРУЙТЕ ЭТОТ ФАЙЛ! ===-

Путь: ...\1999 - Oscar Peterson Plays Duke Ellington

01 -=- 01 - Main stem.flac -=- CDDA (100%)
02 -=- 02 - In a sentimental mood.flac -=- CDDA (100%)
03 -=- 03 - Lady of the lavender mist.flac -=- CDDA (100%)
04 -=- 04 - Don't get around much anymore.flac -=- CDDA (100%)
05 -=- 05 - Satin Doll.flac -=- CDDA (100%)
06 -=- 06 - Cotton tail.flac -=- CDDA (100%)
07 -=- 07 - Medley- Perrido and Caravan.flac -=- CDDA (100%)
08 -=- 08 - I got it bad.flac -=- CDDA (100%)
09 -=- 09 - Things ain't axactly what they used to be.flac -=- CDDA (99%)
10 -=- 10 - Take the A train.flac -=- CDDA (100%)

Сводка 99,90% CDDA

68617988
[свернуть]

Скачать Oscar Peterson - Oscar Peterson Plays Duke Ellington



password: sergych
[свернуть]
My opinion of release: 10/10

Release info RInfo

Записи 1967 и 1986 годов. Ремастеринг 1999 года
__________________
TAIFUN.Wings of Soul

Вверх
2 пользователя(ей) сказали cпасибо:
aheron (16.02.2013), TAIFUN (06.03.2015)
  #2
Старый 05.03.2015, 20:44
sergych
Координатор
Досье
 
Аватар для sergych
Релиз Re: Oscar Peterson - Oscar Peterson Plays Duke Ellington


1999 - Oscar Peterson Plays Duke Ellington




Исполнитель/Artist: Oscar Peterson
Альбом/Album: Oscar Peterson Plays Duke Ellington
Год/Year: 1999
Жанр/Genre: Jazz, Swing
Страна/Country: Соединённые Штаты
Рекорд-лейбл/Record label: Pablo Records / Fantasy
Номер в каталоге/Catalogue #: PACD-2310-966-2
Формат/Format: Free Lossless Audio Codec (*.flac)
Качество/Quality: Lossless
Тип рипа/RIP Type: image+.cue
Продолжительность/Length: 01:05:55
Источник/Source: Собственный рип
Размер/Size: 389.5 MB

Сканы в комплекте

Треклист

01. Main Stem [0:05:11.23]
02. In A Sentimental Mood [0:05:10.15]
03. Lady Of The Lavender Mist [0:04:16.45]
04. Don't Get Around Much Anymore [0:03:13.22]
05. Satin Doll [0:07:11.65]
06. Cotton Tail [0:03:14.30]
07. Medley: Perrido And Caravan [0:13:27.48]
08. I Got It Bad [0:04:59.02]
09. Things Ain't Axactly What They Used To Be [0:13:04.08]
10. Take The A Train [0:06:05.47]
[свернуть]

youtube.com

[свернуть]

Исполнители/Performers

Oscar Peterson - piano

with
Sam Jones, Louis Hayes, Bobby Durham, Clark Terry, Joe Pass, Niels-Henning Orster Pedersen, Martin Drew, David Young, Dizzy Gillespie, Eddie "Lockjaw" Davis, and The Duke Ellington Orchestra
[свернуть]

EAC лог

Exact Audio Copy V1.0 beta 3 from 29. August 2011

EAC extraction logfile from 5. March 2015, 20:27

Oscar Peterson / Oscar Peterson Plays Duke Ellington

Used drive : ATAPI iHAS124 D Adapter: 0 ID: 2

Read mode : Secure
Utilize accurate stream : Yes
Defeat audio cache : Yes
Make use of C2 pointers : No

Read offset correction : 6
Overread into Lead-In and Lead-Out : No
Fill up missing offset samples with silence : Yes
Delete leading and trailing silent blocks : No
Null samples used in CRC calculations : Yes
Used interface : Installed external ASPI interface

Used output format : User Defined Encoder
Selected bitrate : 1024 kBit/s
Quality : High
Add ID3 tag : No
Command line compressor : C:\Program Files (x86)\Exact Audio Copy\Flac\flac.exe
Additional command line options : -6 -V -T "ARTIST=%artist%" -T "TITLE=%title%" -T "ALBUM=%albumtitle%" -T "DATE=%year%" -T "TRACKNUMBER=%tracknr%" -T "GENRE=%genre%" -T "COMMENT=%comment%" -T "BAND=%albuminterpret%" -T "COMPOSER=%composer%" %haslyrics%--tag-from-file=LYRICS="%lyricsfile%"%haslyrics% -T "DISCNUMBER=%cdnumber%" -T "TOTALDISCS=%totalcds%" -T "TOTALTRACKS=%numtracks%" %hascover%--picture="%coverfile%"%hascover% %source% -o %dest%


TOC of the extracted CD

Track | Start | Length | Start sector | End sector
---------------------------------------------------------
1 | 0:00.00 | 5:11.23 | 0 | 23347
2 | 5:11.23 | 5:10.15 | 23348 | 46612
3 | 10:21.38 | 4:16.45 | 46613 | 65857
4 | 14:38.08 | 3:13.22 | 65858 | 80354
5 | 17:51.30 | 7:11.65 | 80355 | 112744
6 | 25:03.20 | 3:14.30 | 112745 | 127324
7 | 28:17.50 | 13:27.48 | 127325 | 187897
8 | 41:45.23 | 4:59.02 | 187898 | 210324
9 | 46:44.25 | 13:04.08 | 210325 | 269132
10 | 59:48.33 | 6:05.47 | 269133 | 296554


Range status and errors

Selected range

Filename C:\mm\Oscar Peterson\1999 - Oscar Peterson Plays Duke Ellington [PACD-2310-966-2]\Oscar Peterson - Oscar Peterson Plays Duke Ellington.wav

Peak level 100.0 %
Extraction speed 9.1 X
Range quality 100.0 %
Test CRC 5CC1E2EB
Copy CRC 5CC1E2EB
Copy OK

No errors occurred


AccurateRip summary

Track 1 accurately ripped (confidence 2) [51342BF4] (AR v2)
Track 2 accurately ripped (confidence 2) [0C819FD3] (AR v2)
Track 3 accurately ripped (confidence 2) [FB0F2B8F] (AR v2)
Track 4 accurately ripped (confidence 2) [87A19CD4] (AR v2)
Track 5 accurately ripped (confidence 2) [399F9043] (AR v2)
Track 6 accurately ripped (confidence 2) [0F4EBC9C] (AR v2)
Track 7 accurately ripped (confidence 2) [FA410373] (AR v2)
Track 8 accurately ripped (confidence 2) [88C4CAD4] (AR v2)
Track 9 accurately ripped (confidence 2) [46CECE41] (AR v2)
Track 10 accurately ripped (confidence 2) [18B04C70] (AR v2)

All tracks accurately ripped

End of status report
[свернуть]

Файл CUE

REM GENRE Jazz
REM DATE 1999
REM DISCID 820F720A
REM COMMENT "ExactAudioCopy v1.0b3"
PERFORMER "Oscar Peterson"
TITLE "Oscar Peterson Plays Duke Ellington"
FILE "Oscar Peterson - Oscar Peterson Plays Duke Ellington.flac" WAVE
TRACK 01 AUDIO
TITLE "Main Stem"
PERFORMER "Oscar Peterson"
INDEX 01 00:00:00
TRACK 02 AUDIO
TITLE "In A Sentimental Mood"
PERFORMER "Oscar Peterson"
INDEX 00 05:09:63
INDEX 01 05:11:23
TRACK 03 AUDIO
TITLE "Lady Of The Lavender Mist"
PERFORMER "Oscar Peterson"
INDEX 00 10:20:03
INDEX 01 10:21:38
TRACK 04 AUDIO
TITLE "Don't Get Around Much Anymore"
PERFORMER "Oscar Peterson"
INDEX 00 14:36:43
INDEX 01 14:38:08
TRACK 05 AUDIO
TITLE "Satin Doll"
PERFORMER "Oscar Peterson"
INDEX 00 17:49:58
INDEX 01 17:51:30
TRACK 06 AUDIO
TITLE "Cotton Tail"
PERFORMER "Oscar Peterson"
INDEX 00 25:01:28
INDEX 01 25:03:20
TRACK 07 AUDIO
TITLE "Medley: Perrido And Caravan"
PERFORMER "Oscar Peterson"
INDEX 00 28:16:58
INDEX 01 28:17:50
TRACK 08 AUDIO
TITLE "I Got It Bad"
PERFORMER "Oscar Peterson"
INDEX 00 41:43:60
INDEX 01 41:45:23
TRACK 09 AUDIO
TITLE "Things Ain't Axactly What They Used To Be"
PERFORMER "Oscar Peterson"
INDEX 00 46:42:55
INDEX 01 46:44:25
TRACK 10 AUDIO
TITLE "Take The A Train"
PERFORMER "Oscar Peterson"
INDEX 00 59:46:68
INDEX 01 59:48:33
[свернуть]

Лог проверки качества

AUDIOCHECKER v2.0 beta (build 457) - by Dester -
~~~~~~~~~~~~~~~~~~~~~~~~~~~~~~~~~~
-=== НЕ РЕДАКТИРУЙТЕ ЭТОТ ФАЙЛ! ===-

Путь: ...\1999 - Oscar Peterson Plays Duke Ellington [PACD-2310-966-2]

1 -=- Oscar Peterson - Oscar Peterson Plays Duke Ellington.flac -=- CDDA (100%)

181636116
[свернуть]

Спектр частот

[свернуть]

Скачать Oscar Peterson - Oscar Peterson Plays Duke Ellington



password: sergych
[свернуть]
My opinion of release: 10/10
__________________
TAIFUN.Wings of Soul

Вверх
2 пользователя(ей) сказали cпасибо:
papa1954 (26.07.2016), TAIFUN (06.03.2015)
Похожие темы
Тема Автор Раздел Ответов Последнее сообщение
Альбом Ben Webster & Oscar Peterson - Ben Webster Meets Oscar Peterson sergych Jazz и Blues 1 01.06.2018 17:07
Альбом Oscar Peterson - Plays The Cole Porter Song Book sergych Jazz и Blues 0 01.03.2011 14:21
Альбом Oscar Peterson - Oscar Peterson plays Porgy & Bess sergych Jazz и Blues 0 27.12.2008 06:28
Сборник Oscar Peterson - An Oscar Peterson Christmas sergych Jazz и Blues 0 27.12.2008 05:27
Альбом Count Basie & Oscar Peterson - The Timekeepers (Count Basie Meets Oscar Peterson) sergych Jazz и Blues 0 26.12.2008 04:10


Метки
1967 , jazz , oscar peterson , oscar peterson plays duke ellington , swing

Опции темы

Ваши права в разделе
Вы не можете создавать новые темы
Вы не можете отвечать в темах
Вы не можете прикреплять вложения
Вы не можете редактировать свои сообщения

Быстрый переход



Текущее время: 18:14. Часовой пояс GMT +3.
Powered by vBulletin® Version 3.8.10
Copyright ©2000 - 2018, vBulletin Solutions, Inc. Перевод: zCarot
© 2008 - 2018 Taifun With Song
Яндекс.Метрика