TAIFUN With Song
Навигация
Вернуться   TAIFUN With Song > Music (обменник) > Rock > Progressive Rock
Расширенный поиск
Progressive Rock Единственной универсальной характеристикой прогрессивного рока является усложнение музыкальной формы. Это проявляется в удлиннении и усложнении музыкальных пьес, тяготении к циклическим формам академической музыки; расширении репертуара используемых тембров, усложнении метра и ритма, использовании нетрадиционных для рока мелодических и гармонических решений; поэзии, уходящей от тем развлекательной музыки и тяготеющей к философским «вечным темам», фантастической и фентезийной тематике; переплетении с классической и современной академической музыкой, джазом.

А знаете ли Вы, что...
Сколько музыкантов и композиторов произошло из семьи Бахов?
«Иоганн Себастьян Бах был не единственным талантом в своей семье. Бахи дали миру более 50 известных музыкантов и несколько замечательных композиторов. Сам Иоганн Себастьян был признан наиболее выдающимся из них намного позже своей смерти. В последние же годы жизни Иоганна Себастьяна его больше почитали за воспитание Бахов-младших, в первую очередь Карла Филиппа Эммануила, музыка которого была известнее.»
 
Опции темы

  #1
Старый 09.11.2010, 21:50
sergych
Координатор
Досье
 
Аватар для sergych
Thumbs up Roger Waters - Amused To Death

1992 - Amused To Death



Исполнитель/Artist: Roger Waters
Название/Album: Amused To Death
Год/Year: 1992
Издатель/Label: Columbia Records
Жанр/Genre: Rock / Psychedelic rock / Progressive Rock
Формат/Format: mp3 CBR
Качество/Quality: 320 kbps JStereo
Размер/Size: 188.3 MB
Продолжительность/Length: 01:12:36

сканы в комплекте

Треклист

01 - The Ballad Of Bill Hubbard
02 - What God Wants, Part I
03 - Perfect Sense, Part I
04 - Perfect Sense, Part II
05 - The Bravery Of Being Out Of Range
06 - Late Home Tonight, Part I
07 - Late Home Tonight, Part II
08 - Too Much Rope
09 - What God Wants, Part II
10 - What God Wants, Part III
11 - Watching TV
12 - Three Wishes
13 - It's A Miracle
14 - Amused To Death
[свернуть]
обложка и тексты песен добавлены в теги треков

Скачать Roger Waters - Amused To Death (1992)



password: sergych
[свернуть]


My opinion of release: 10/10
__________________
TAIFUN.Wings of Soul

Вверх
  #2
Старый 18.09.2012, 10:49
sergych
Координатор
Досье
 
Аватар для sergych
Релиз Re: Roger Waters - Amused To Death


1992 - Roger Waters - Amused To Death




Исполнитель/Artist: Roger Waters
Альбом/Album: Amused To Death
Год/Year: 1992
Жанр/Genre: Rock, Psychedelic rock, Progressive Rock
Страна/Country: Соединённые Штаты
Номер в каталоге/Catalogue #: CK 47127 / DIDP-077940
Рекорд-лейбл/Record label: Columbia
Формат/Format: Free Lossless Audio Codec (*.flac)
Качество/Quality: Lossless
Тип рипа/RIP Type: tracks+.cue
Продолжительность/Length: 01:12:35
Источник/Source: Собственный рип
Размер/Size: 392.6 MB

Сканы в комплекте

Треклист

01 - The Ballad of Bill Hubbard
02 - What God Wants, Part I
03 - Perfect Sense, Part I
04 - Perfect Sense, Part II
05 - The Bravery of Being Out of Range
06 - Late Home Tonight, Part I
07 - Late Home Tonight, Part II
08 - Too Much Rope
09 - What God Wants, Part II
10 - What God Wants, Part III
11 - Watching TV
12 - Three Wishes
13 - It's a Miracle
14 - Amused to Death
[свернуть]

youtube.com

[свернуть]

Исполнители/Performers

Roger Waters - vocals (all tracks except 1), bass (tracks 2 and 13), synthesizers (tracks 2 and 4), guitar (tracks 5, 11 and 14)
Patrick Leonard - keyboards (all tracks except 6 and 7), percussion programming (track 1), choir arrangement (tracks 2, 9, 10, 11 and 13), vocals (track 4), acoustic piano (tracks 11 and 13), Hammond organ (track 5), synthetisers (tracks 5 and 13)
Jeff Beck - guitar (tracks 1, 2, 10, 11, 12, 13 and 14)
Randy Jackson - bass (tracks 2 and 9)
Graham Broad - drums (all tracks except 1, 5, 11 and 13), percussion (tracks 6 and 7)
Luis Conte - percussion (all tracks except 2, 5, 9, 11, 13 and 14)
Geoff Whitehorn - guitar (tracks 2, 8, 10 and 14)
Andy Fairweather Low - guitar (tracks 2, 6, 7, 8, 9, 11 and 12), vocals (tracks 6 and 7)
Tim Pierce - guitar (tracks 2, 5, 9 and 12)
B.J. Cole - guitar (tracks 3 and 4)
Steve Lukather - guitar (tracks 3, 4 and 8)
Rick DiFonso - guitar (tracks 3 and 4)
Bruce Gaitsch - guitar (tracks 3 and 4)
James Johnson - bass (all tracks except 1, 2, 5, 9 and 11)
Brian Macleod - snare (tracks 3 and 4), hi-hat (tracks 3 and 4)
John Pierce - bass (track 5)
Denny Fongheiser - drums (track 5)
Steve Sidwell - cornet (tracks 6 and 7)
John Patitucci - bass (track 11)
Guo Yi & the Peking Brothers - dulcimer, lute, zhen, oboe, bass (track 11)
John "Rabbit" Bundrick - Hammond organ (track 12)
Jeff Porcaro - drums (track 13)
Marv Albert - vocals (track 4)
Katie Kissoon - vocals (tracks 2, 8, 9, 12 and 14)
Doreen Chanter - vocals (tracks 2, 8, 9, 12 and 14)
N'Dea Davenport - vocals (track 2)
Natalie Jackson - vocals (tracks 2 and 5)
P.P. Arnold - vocals (tracks 3 and 4)
Lynn Fiddmont-Linsey - vocals (track 5)
Jessica Leonard - vocals (track 8)
Jordan Leonard - vocals (track 8)
Don Henley - vocals (track 11)
Jon Joyce - vocals (track 13)
Stan Farber - vocals (track 13) (credited as Stan Laurel)
Jim Haas - vocals (track 13)
Rita Coolidge - vocals (track 14)
Alf Razzell - vocals (tracks 1 and 14)
[свернуть]

EAC лог

Exact Audio Copy V1.0 beta 3 from 29. August 2011

EAC extraction logfile from 17. September 2012, 10:56

Roger Waters / Amused to Death

Used drive : Optiarc DVD RW AD-5170A Adapter: 0 ID: 1

Read mode : Secure
Utilize accurate stream : Yes
Defeat audio cache : Yes
Make use of C2 pointers : Yes

Read offset correction : 48
Overread into Lead-In and Lead-Out : No
Fill up missing offset samples with silence : Yes
Delete leading and trailing silent blocks : No
Null samples used in CRC calculations : Yes
Used interface : Installed external ASPI interface
Gap handling : Appended to previous track

Used output format : User Defined Encoder
Selected bitrate : 896 kBit/s
Quality : High
Add ID3 tag : No
Command line compressor : C:\MMProgram\Exact Audio Copy\FLAC\FLAC.EXE
Additional command line options : -6 -V -T "ARTIST=%artist%" -T "TITLE=%title%" -T "ALBUM=%albumtitle%" -T "DATE=%year%" -T "TRACKNUMBER=%tracknr%" -T "GENRE=%genre%" -T "COMMENT=%comment%" -T "BAND=%albuminterpret%" -T "ALBUMARTIST=%albuminterpret%" -T "COMPOSER=%composer%" %haslyrics%--tag-from-file=LYRICS="%lyricsfile%"%haslyrics% -T "DISCNUMBER=%cdnumber%" -T "TOTALDISCS=%totalcds%" -T "TOTALTRACKS=%numtracks%" %hascover%--picture="%coverfile%"%hascover% %source% -o %dest%


TOC of the extracted CD

Track | Start | Length | Start sector | End sector
---------------------------------------------------------
1 | 0:00.00 | 4:19.62 | 0 | 19486
2 | 4:19.62 | 6:00.13 | 19487 | 46499
3 | 10:20.00 | 4:16.05 | 46500 | 65704
4 | 14:36.05 | 2:50.65 | 65705 | 78519
5 | 17:26.70 | 4:43.22 | 78520 | 99766
6 | 22:10.17 | 4:00.50 | 99767 | 117816
7 | 26:10.67 | 2:13.20 | 117817 | 127811
8 | 28:24.12 | 5:47.20 | 127812 | 153856
9 | 34:11.32 | 3:41.45 | 153857 | 170476
10 | 37:53.02 | 4:08.08 | 170477 | 189084
11 | 42:01.10 | 6:07.72 | 189085 | 216681
12 | 48:09.07 | 6:50.20 | 216682 | 247451
13 | 54:59.27 | 8:30.08 | 247452 | 285709
14 | 63:29.35 | 9:06.70 | 285710 | 326729


Track 1

Filename C:\mm\Roger Waters\1992 - Amused to Death\01 - The Ballad of Bill Hubbard.wav

Pre-gap length 0:00:02.00

Peak level 63.9 %
Extraction speed 6.3 X
Track quality 100.0 %
Test CRC A240AFBE
Copy CRC A240AFBE
Cannot be verified as accurate (confidence 200) [0F0CB557], AccurateRip returned [476B3C30] (AR v2)
Copy OK

Track 2

Filename C:\mm\Roger Waters\1992 - Amused to Death\02 - What God Wants, Part I.wav

Pre-gap length 0:00:00.02

Peak level 100.0 %
Extraction speed 7.4 X
Track quality 100.0 %
Test CRC 9CA03DB5
Copy CRC 9CA03DB5
Cannot be verified as accurate (confidence 200) [79B67C78], AccurateRip returned [E9C0DF5B] (AR v2)
Copy OK

Track 3

Filename C:\mm\Roger Waters\1992 - Amused to Death\03 - Perfect Sense, Part I.wav

Pre-gap length 0:00:00.03

Peak level 82.6 %
Extraction speed 7.6 X
Track quality 100.0 %
Test CRC 5777598A
Copy CRC 5777598A
Cannot be verified as accurate (confidence 200) [B23F87D8], AccurateRip returned [7ECD1E00] (AR v2)
Copy OK

Track 4

Filename C:\mm\Roger Waters\1992 - Amused to Death\04 - Perfect Sense, Part II.wav

Pre-gap length 0:00:00.03

Peak level 97.2 %
Extraction speed 7.4 X
Track quality 100.0 %
Test CRC 52014ED4
Copy CRC 52014ED4
Cannot be verified as accurate (confidence 200) [92B37F4F], AccurateRip returned [BA7EB7A0] (AR v2)
Copy OK

Track 5

Filename C:\mm\Roger Waters\1992 - Amused to Death\05 - The Bravery of Being Out of Range.wav

Pre-gap length 0:00:00.03

Peak level 100.0 %
Extraction speed 7.0 X
Track quality 99.9 %
Test CRC 82D21899
Copy CRC 5B8F42C6
Cannot be verified as accurate (confidence 200) [347262B8], AccurateRip returned [4B7B5C49] (AR v2)
Copy OK

Track 6

Filename C:\mm\Roger Waters\1992 - Amused to Death\06 - Late Home Tonight, Part I.wav

Pre-gap length 0:00:00.02

Peak level 100.0 %
Extraction speed 8.8 X
Track quality 100.0 %
Test CRC A799155E
Copy CRC E6B3FA51
Cannot be verified as accurate (confidence 200) [87098B77], AccurateRip returned [9A11D14C] (AR v2)
Copy OK

Track 7

Filename C:\mm\Roger Waters\1992 - Amused to Death\07 - Late Home Tonight, Part II.wav

Pre-gap length 0:00:00.02

Peak level 48.1 %
Extraction speed 7.5 X
Track quality 100.0 %
Test CRC 1BBE1B64
Copy CRC 1BBE1B64
Cannot be verified as accurate (confidence 200) [C7A53936], AccurateRip returned [106BB94F] (AR v2)
Copy OK

Track 8

Filename C:\mm\Roger Waters\1992 - Amused to Death\08 - Too Much Rope.wav

Pre-gap length 0:00:00.02

Peak level 95.1 %
Extraction speed 10.0 X
Track quality 100.0 %
Test CRC 632DB04A
Copy CRC 632DB04A
Cannot be verified as accurate (confidence 200) [25024909], AccurateRip returned [F552BE20] (AR v2)
Copy OK

Track 9

Filename C:\mm\Roger Waters\1992 - Amused to Death\09 - What God Wants, Part II.wav

Pre-gap length 0:00:00.02

Peak level 85.8 %
Extraction speed 9.9 X
Track quality 100.0 %
Test CRC 8B0A4E30
Copy CRC B4FE1BFF
Cannot be verified as accurate (confidence 200) [78FE64C1], AccurateRip returned [C56D86FF] (AR v2)
Copy OK

Track 10

Filename C:\mm\Roger Waters\1992 - Amused to Death\10 - What God Wants, Part III.wav

Pre-gap length 0:00:00.02

Peak level 87.8 %
Extraction speed 10.4 X
Track quality 100.0 %
Test CRC FB084BA6
Copy CRC D2A571E7
Cannot be verified as accurate (confidence 200) [51276727], AccurateRip returned [985854F1] (AR v2)
Copy OK

Track 11

Filename C:\mm\Roger Waters\1992 - Amused to Death\11 - Watching TV.wav

Pre-gap length 0:00:00.03

Peak level 64.9 %
Extraction speed 11.3 X
Track quality 100.0 %
Test CRC 74D8360A
Copy CRC 6B7C6853
Cannot be verified as accurate (confidence 200) [F8A05DDB], AccurateRip returned [427EF61A] (AR v2)
Copy OK

Track 12

Filename C:\mm\Roger Waters\1992 - Amused to Death\12 - Three Wishes.wav

Pre-gap length 0:00:00.02

Peak level 100.0 %
Extraction speed 12.1 X
Track quality 100.0 %
Test CRC D420E352
Copy CRC 1A87D4F1
Cannot be verified as accurate (confidence 200) [C3FB889D], AccurateRip returned [3EA503EA] (AR v2)
Copy OK

Track 13

Filename C:\mm\Roger Waters\1992 - Amused to Death\13 - It's a Miracle.wav

Pre-gap length 0:00:00.02

Peak level 100.0 %
Extraction speed 13.0 X
Track quality 100.0 %
Test CRC E90A9D09
Copy CRC E4C13C6E
Cannot be verified as accurate (confidence 200) [6806CB00], AccurateRip returned [CF5DDD25] (AR v2)
Copy OK

Track 14

Filename C:\mm\Roger Waters\1992 - Amused to Death\14 - Amused to Death.wav

Pre-gap length 0:00:00.03

Peak level 100.0 %
Extraction speed 9.7 X
Track quality 100.0 %
Test CRC 78CD38D1
Copy CRC D53AADD5
Cannot be verified as accurate (confidence 200) [929A39A5], AccurateRip returned [1D23ACEF] (AR v2)
Copy OK


No tracks could be verified as accurate
You may have a different pressing from the one(s) in the database

No errors occurred

End of status report
[свернуть]

Файл CUE

REM GENRE "Progressive Rock"
REM DATE 1992
REM DISCID AD11040E
REM COMMENT "ExactAudioCopy v1.0b3"
PERFORMER "Roger Waters"
TITLE "Amused to Death"
FILE "01 - The Ballad of Bill Hubbard.wav" WAVE
TRACK 01 AUDIO
TITLE "The Ballad of Bill Hubbard"
PERFORMER "Roger Waters"
INDEX 01 00:00:00
TRACK 02 AUDIO
TITLE "What God Wants, Part I"
PERFORMER "Roger Waters"
INDEX 00 04:19:60
FILE "02 - What God Wants, Part I.wav" WAVE
INDEX 01 00:00:00
TRACK 03 AUDIO
TITLE "Perfect Sense, Part I"
PERFORMER "Roger Waters"
INDEX 00 06:00:10
FILE "03 - Perfect Sense, Part I.wav" WAVE
INDEX 01 00:00:00
TRACK 04 AUDIO
TITLE "Perfect Sense, Part II"
PERFORMER "Roger Waters"
INDEX 00 04:16:02
FILE "04 - Perfect Sense, Part II.wav" WAVE
INDEX 01 00:00:00
TRACK 05 AUDIO
TITLE "The Bravery of Being Out of Range"
PERFORMER "Roger Waters"
INDEX 00 02:50:62
FILE "05 - The Bravery of Being Out of Range.wav" WAVE
INDEX 01 00:00:00
TRACK 06 AUDIO
TITLE "Late Home Tonight, Part I"
PERFORMER "Roger Waters"
INDEX 00 04:43:20
FILE "06 - Late Home Tonight, Part I.wav" WAVE
INDEX 01 00:00:00
TRACK 07 AUDIO
TITLE "Late Home Tonight, Part II"
PERFORMER "Roger Waters"
INDEX 00 04:00:48
FILE "07 - Late Home Tonight, Part II.wav" WAVE
INDEX 01 00:00:00
TRACK 08 AUDIO
TITLE "Too Much Rope"
PERFORMER "Roger Waters"
INDEX 00 02:13:18
FILE "08 - Too Much Rope.wav" WAVE
INDEX 01 00:00:00
TRACK 09 AUDIO
TITLE "What God Wants, Part II"
PERFORMER "Roger Waters"
INDEX 00 05:47:18
FILE "09 - What God Wants, Part II.wav" WAVE
INDEX 01 00:00:00
TRACK 10 AUDIO
TITLE "What God Wants, Part III"
PERFORMER "Roger Waters"
INDEX 00 03:41:43
FILE "10 - What God Wants, Part III.wav" WAVE
INDEX 01 00:00:00
TRACK 11 AUDIO
TITLE "Watching TV"
PERFORMER "Roger Waters"
INDEX 00 04:08:05
FILE "11 - Watching TV.wav" WAVE
INDEX 01 00:00:00
TRACK 12 AUDIO
TITLE "Three Wishes"
PERFORMER "Roger Waters"
INDEX 00 06:07:70
FILE "12 - Three Wishes.wav" WAVE
INDEX 01 00:00:00
TRACK 13 AUDIO
TITLE "It's a Miracle"
PERFORMER "Roger Waters"
INDEX 00 06:50:18
FILE "13 - It's a Miracle.wav" WAVE
INDEX 01 00:00:00
TRACK 14 AUDIO
TITLE "Amused to Death"
PERFORMER "Roger Waters"
INDEX 00 08:30:05
FILE "14 - Amused to Death.wav" WAVE
INDEX 01 00:00:00
[свернуть]

Лог проверки качества

AUDIOCHECKER v2.0 beta (build 457) - by Dester -
~~~~~~~~~~~~~~~~~~~~~~~~~~~~~~~~~~
-=== НЕ РЕДАКТИРУЙТЕ ЭТОТ ФАЙЛ! ===-

Путь: ...\1992 - Amused to Death

01 -=- 01 - The Ballad of Bill Hubbard.flac -=- CDDA (99%)
02 -=- 02 - What God Wants, Part I.flac -=- CDDA (100%)
03 -=- 03 - Perfect Sense, Part I.flac -=- CDDA (100%)
04 -=- 04 - Perfect Sense, Part II.flac -=- CDDA (100%)
05 -=- 05 - The Bravery of Being Out of Range.flac -=- CDDA (99%)
06 -=- 06 - Late Home Tonight, Part I.flac -=- CDDA (100%)
07 -=- 07 - Late Home Tonight, Part II.flac -=- CDDA (100%)
08 -=- 08 - Too Much Rope.flac -=- CDDA (100%)
09 -=- 09 - What God Wants, Part II.flac -=- CDDA (100%)
10 -=- 10 - What God Wants, Part III.flac -=- CDDA (99%)
11 -=- 11 - Watching TV.flac -=- CDDA (100%)
12 -=- 12 - Three Wishes.flac -=- CDDA (100%)
13 -=- 13 - It's a Miracle.flac -=- CDDA (100%)
14 -=- 14 - Amused to Death.flac -=- CDDA (100%)

Сводка 99,79% CDDA

27410404
[свернуть]

Скачать Roger Waters - Amused To Death



password: sergych
[свернуть]
My opinion of release: 10/10
__________________
TAIFUN.Wings of Soul

Вверх
2 пользователя(ей) сказали cпасибо:
kinkkm (21.10.2014), PUPOKIN (19.09.2012)
Похожие темы
Тема Автор Раздел Ответов Последнее сообщение
ROGER SANCHEZ - FG DJ Radio PUPOKIN House 0 11.11.2008 09:36
Roger Sanchez Tolich House 0 27.05.2008 13:26
Eagles of Death Metal - Death by Sexy ReAl Death Metal 0 19.05.2008 18:55


Метки
pink floyd , progressive rock , psychedelic rock , rock , roger waters

Опции темы

Ваши права в разделе
Вы не можете создавать новые темы
Вы не можете отвечать в темах
Вы не можете прикреплять вложения
Вы не можете редактировать свои сообщения

Быстрый переход



Текущее время: 04:25. Часовой пояс GMT +3.
Powered by vBulletin® Version 3.8.10
Copyright ©2000 - 2018, vBulletin Solutions, Inc. Перевод: zCarot
© 2008 - 2018 Taifun With Song
Яндекс.Метрика