TAIFUN With Song
Навигация
R&B Ссылки на музыку в этом стиле

А знаете ли Вы, что...
Какой император наказывал офицеров прослушиванием оперы?
«Император Николай I не любил музыку и в качестве наказания для офицеров предоставлял им выбор между гауптвахтой и прослушиванием опер Глинки.»
 
Опции темы

  #1
Старый 02.11.2017, 22:38
sergych
Координатор
Досье
 
Аватар для sergych
Релиз Mariah Carey - Rainbow


1999 - Mariah Carey - Rainbow




Исполнитель/Artist: Mariah Carey
Альбом/Album: Rainbow
Год/Year: 1999
Жанр/Genre: R&B, pop, hip-hop
Страна/Country: Япония
Рекорд-лейбл/Record label: Sony Music
Номер в каталоге/Catalogue #: SRCS 2222
Формат/Format: Free Lossless Audio Codec (*.flac)
Качество/Quality: Lossless
Тип рипа/RIP Type: image+.cue
Продолжительность/Length: 00:55:47
Источник/Source: Собственный рип
Размер/Size: 483.2 MB

Сканы в комплекте

Треклист

01. Heartbreaker (feat. Jay-Z) [0:04:46.22]
02. Can't Take That Away (Mariah's Theme) [0:04:32.25]
03. Bliss [0:05:44.65]
04. How Much [0:03:31.20]
05. After Tonight [0:04:16.40]
06. X-Girlfriend [0:03:57.45]
07. Heartbreaker (Remix) (feat. Da Brat & Missy Elliott) [0:04:32.05]
08. Vulnerability (Interlude) [0:01:11.65]
09. Against All Odds (Take A Look At Me Now) [0:03:25.20]
10. Crybaby (feat. Snoop Dogg) [0:05:20.13]
11. Did I Do That? [0:04:16.05]
12. Petals [0:04:22.70]
13. Rainbow (Interlude) [0:01:32.32]
14. Thank God I Found You (feat. Joe & 98 Degrees) [0:04:17.43]
[свернуть]

youtube.com

[свернуть]

Исполнители/Performers

Mariah Carey – lead vocals, songwriting, background vocals
David Foster – keyboard, songwriting
Narada Michael Walden – guitars, programming
Bryan-Michael Cox – bass, keyboards
Jermaine Dupri – programming, percussion
James "Big Jim" Wright – keyboard, bass
Terry Lewis – synthesizers, keyboards, rhythm programming
James Harris III – synthesizers
Cindy Mizelle, Kelly Price, Melonie Daniels, Shanrae Price, Trey Lorenz – background vocals
[свернуть]

EAC лог

Exact Audio Copy V1.3 from 2. September 2016

EAC extraction logfile from 19. October 2017, 1:12

Mariah Carey / Rainbow

Used drive : ATAPI iHAS124 D Adapter: 0 ID: 2

Read mode : Secure
Utilize accurate stream : Yes
Defeat audio cache : Yes
Make use of C2 pointers : No

Read offset correction : 6
Overread into Lead-In and Lead-Out : No
Fill up missing offset samples with silence : Yes
Delete leading and trailing silent blocks : No
Null samples used in CRC calculations : Yes
Used interface : Installed external ASPI interface

Used output format : User Defined Encoder
Selected bitrate : 1024 kBit/s
Quality : High
Add ID3 tag : No
Command line compressor : C:\Program Files (x86)\Exact Audio Copy\Flac\flac.exe
Additional command line options : -6 -V -T "ARTIST=%artist%" -T "TITLE=%title%" -T "ALBUM=%albumtitle%" -T "DATE=%year%" -T "TRACKNUMBER=%tracknr%" -T "GENRE=%genre%" -T "COMMENT=%comment%" -T "BAND=%albuminterpret%" -T "ALBUMARTIST=%albuminterpret%" -T "COMPOSER=%composer%" %haslyrics%--tag-from-file=LYRICS="%lyricsfile%"%haslyrics% -T "DISCNUMBER=%cdnumber%" -T "TOTALDISCS=%totalcds%" -T "TOTALTRACKS=%numtracks%" %hascover%--picture="%coverfile%"%hascover% %source% -o %dest%


TOC of the extracted CD

Track | Start | Length | Start sector | End sector
---------------------------------------------------------
1 | 0:00.00 | 4:46.22 | 0 | 21471
2 | 4:46.22 | 4:32.25 | 21472 | 41896
3 | 9:18.47 | 5:44.65 | 41897 | 67761
4 | 15:03.37 | 3:31.20 | 67762 | 83606
5 | 18:34.57 | 4:16.40 | 83607 | 102846
6 | 22:51.22 | 3:57.45 | 102847 | 120666
7 | 26:48.67 | 4:32.05 | 120667 | 141071
8 | 31:20.72 | 1:11.65 | 141072 | 146461
9 | 32:32.62 | 3:25.20 | 146462 | 161856
10 | 35:58.07 | 5:20.13 | 161857 | 185869
11 | 41:18.20 | 4:16.05 | 185870 | 205074
12 | 45:34.25 | 4:22.70 | 205075 | 224794
13 | 49:57.20 | 1:32.32 | 224795 | 231726
14 | 51:29.52 | 4:17.43 | 231727 | 251044


Range status and errors

Selected range

Filename C:\mm\Mariah Carey\1999 - Rainbow [SRCS 2222]\Mariah Carey - Rainbow.wav

Peak level 100.0 %
Extraction speed 8.7 X
Range quality 100.0 %
Test CRC 1AD1C6BB
Copy CRC 1AD1C6BB
Copy OK

No errors occurred


AccurateRip summary

Track 1 accurately ripped (confidence 24) [0C3F6FB4] (AR v2)
Track 2 accurately ripped (confidence 24) [605AC479] (AR v2)
Track 3 accurately ripped (confidence 23) [A3345828] (AR v2)
Track 4 accurately ripped (confidence 24) [271EC708] (AR v2)
Track 5 accurately ripped (confidence 24) [5485C40E] (AR v2)
Track 6 accurately ripped (confidence 24) [EF71C4B8] (AR v2)
Track 7 accurately ripped (confidence 24) [7BB9E0E4] (AR v2)
Track 8 accurately ripped (confidence 24) [0E7B5F77] (AR v2)
Track 9 accurately ripped (confidence 24) [532747CB] (AR v2)
Track 10 accurately ripped (confidence 24) [F161ADCE] (AR v2)
Track 11 accurately ripped (confidence 24) [F4723E24] (AR v2)
Track 12 accurately ripped (confidence 24) [7B452E3E] (AR v2)
Track 13 accurately ripped (confidence 24) [26D34B58] (AR v2)
Track 14 accurately ripped (confidence 23) [BB527298] (AR v2)

All tracks accurately ripped

End of status report

---- CUETools DB Plugin V2.1.6

[CTDB TOCID: 3PbWWphV9KZLHeiigvtLfa8Y0UE-] found
Submit result: 3PbWWphV9KZLHeiigvtLfa8Y0UE- has been confirmed
Track | CTDB Status
1 | (93/97) Accurately ripped
2 | (94/97) Accurately ripped
3 | (94/97) Accurately ripped
4 | (93/97) Accurately ripped
5 | (94/97) Accurately ripped
6 | (93/97) Accurately ripped
7 | (94/97) Accurately ripped
8 | (94/97) Accurately ripped
9 | (94/97) Accurately ripped
10 | (94/97) Accurately ripped
11 | (92/97) Accurately ripped
12 | (92/97) Accurately ripped
13 | (93/97) Accurately ripped
14 | (91/97) Accurately ripped
[свернуть]

Файл CUE

REM GENRE Soul
REM DATE 1999
REM DISCID C50D130E
REM COMMENT "ExactAudioCopy v1.3"
PERFORMER "Mariah Carey"
TITLE "Rainbow"
REM COMPOSER ""
FILE "Mariah Carey - Rainbow.flac" WAVE
TRACK 01 AUDIO
TITLE "Heartbreaker"
PERFORMER "Mariah Carey feat. Jay-Z"
REM COMPOSER ""
INDEX 01 00:00:00
TRACK 02 AUDIO
TITLE "Can't Take That Away (Mariah's Theme)"
PERFORMER "Mariah Carey"
REM COMPOSER ""
INDEX 01 04:46:22
TRACK 03 AUDIO
TITLE "Bliss"
PERFORMER "Mariah Carey"
REM COMPOSER ""
INDEX 01 09:18:47
TRACK 04 AUDIO
TITLE "How Much"
PERFORMER "Mariah Carey"
REM COMPOSER ""
INDEX 01 15:03:37
TRACK 05 AUDIO
TITLE "After Tonight"
PERFORMER "Mariah Carey"
REM COMPOSER ""
INDEX 01 18:34:57
TRACK 06 AUDIO
TITLE "X-Girlfriend"
PERFORMER "Mariah Carey"
REM COMPOSER ""
INDEX 00 22:49:42
INDEX 01 22:51:22
TRACK 07 AUDIO
TITLE "Heartbreaker (Remix)"
PERFORMER "Mariah Carey feat. Da Brat & Missy Elliott"
REM COMPOSER ""
INDEX 01 26:48:67
TRACK 08 AUDIO
TITLE "Vulnerability (Interlude)"
PERFORMER "Mariah Carey"
REM COMPOSER ""
INDEX 01 31:20:72
TRACK 09 AUDIO
TITLE "Against All Odds (Take A Look At Me Now)"
PERFORMER "Mariah Carey"
REM COMPOSER ""
INDEX 01 32:32:62
TRACK 10 AUDIO
TITLE "Crybaby"
PERFORMER "Mariah Carey feat. Snoop Dogg"
REM COMPOSER ""
INDEX 01 35:58:07
TRACK 11 AUDIO
TITLE "Did I Do That?"
PERFORMER "Mariah Carey"
REM COMPOSER ""
INDEX 01 41:18:20
TRACK 12 AUDIO
TITLE "Petals"
PERFORMER "Mariah Carey"
REM COMPOSER ""
INDEX 00 45:33:10
INDEX 01 45:34:25
TRACK 13 AUDIO
TITLE "Rainbow (Interlude)"
PERFORMER "Mariah Carey"
REM COMPOSER ""
INDEX 01 49:57:20
TRACK 14 AUDIO
TITLE "Thank God I Found You"
PERFORMER "Mariah Carey feat. Joe & 98 Degrees"
REM COMPOSER ""
INDEX 01 51:29:52
[свернуть]

Лог проверки качества

AUDIOCHECKER v2.0 beta (build 457) - by Dester -
~~~~~~~~~~~~~~~~~~~~~~~~~~~~~~~~~~
-=== НЕ РЕДАКТИРУЙТЕ ЭТОТ ФАЙЛ! ===-

Путь: ...\1999 - Rainbow [SRCS 2222]

1 -=- Mariah Carey - Rainbow.flac -=- CDDA (99%)

186853508
[свернуть]

Спектр частот

[свернуть]

Скачать Mariah Carey - Rainbow



password: sergych
[свернуть]

Контрольная сумма (хеш-сумма) архива

MD5: d6c6065c505fb7d2cc2f0e63afa0cb72
[свернуть]
My opinion of release: 10/10
__________________
TAIFUN.Wings of Soul

Вверх
3 пользователя(ей) сказали cпасибо:
Показать список поблагодаривших
  #2
Старый 03.11.2017, 07:50
swint68
Меломан
Досье
 
Аватар для swint68
По умолчанию Re: Mariah Carey - Rainbow

Очередные благодарности!

Вверх
Пользователь сказал cпасибо:
sergych (03.11.2017)
Похожие темы
Тема Автор Раздел Ответов Последнее сообщение
Сборник Mariah Carey - #1's sergych R&B 1 14.10.2017 22:35
Live Mariah Carey - Without You sergych R&B 4 25.07.2017 21:07
Альбом Mariah Carey - Me. I Am Mariah... The Elusive Chanteuse sergych R&B 1 08.05.2017 19:35
Альбом Mariah Carey - Mariah Carey sergych R&B 0 17.09.2015 19:37
Альбом Mariah Carey - E=MC2 LUСIAN R&B 0 19.04.2008 23:25


Метки
1999 , hip-hop , mariah carey , pop , r&b , rainbow

Опции темы

Ваши права в разделе
Вы не можете создавать новые темы
Вы не можете отвечать в темах
Вы не можете прикреплять вложения
Вы не можете редактировать свои сообщения

Быстрый переход



Текущее время: 13:36. Часовой пояс GMT +3.
Powered by vBulletin® Version 3.8.10
Copyright ©2000 - 2018, vBulletin Solutions, Inc. Перевод: zCarot
© 2008 - 2018 Taifun With Song
Яндекс.Метрика