TAIFUN With Song
Навигация
Вернуться   TAIFUN With Song > Music (обменник) > Rock > Blues Rock
Расширенный поиск
Blues Rock К концу сороковых годов прошлого столетия в блюзе окончательно обосновалась электрогитара. Трудно сказать, что подтолкнуло многих блюзменов перейти с привычной акустической гитары на электрическую, но блюз с тех пор очень сильно изменился.

А знаете ли Вы, что...
Для прослушивания какого альбома нужно иметь четыре аудиосистемы?
«Восьмой студийный альбом альтернативной группы The Flaming Lips под названием Zaireeka был выпущен на 4 CD. Особенность альбома в том, что каждая композиция разделена на четыре составляющих, и для того чтобы прослушать песни в полной версии, нужно включить одновременно все диски на четырёх разных аудиосистемах. Слушатели также могут экспериментировать, проигрывая не все диски сразу, а в любой комбинации из двух или трёх штук.»
 
Опции темы

  #1
Старый 13.07.2018, 08:41
sergych
Координатор
Досье
 
Аватар для sergych
Релиз Евгений Маргулис - Пой как Маргулис. Лучшее


2016 - Евгений Маргулис - Пой как Маргулис. Лучшее




Исполнитель/Artist: Евгений Маргулис
Альбом/Album: Пой как Маргулис. Лучшее
Год/Year: 2016
Жанр/Genre: blues rock, blues, rock
Страна/Country: Россия
Рекорд-лейбл/Record label: Студия Союз
Номер в каталоге/Catalogue #: SZCD 6501-16
Формат/Format: Free Lossless Audio Codec (*.flac)
Качество/Quality: Lossless
Тип рипа/RIP Type: image+.cue
Продолжительность/Length: 01:04:25
Источник/Source: Собственный рип
Размер/Size: 429.8 MB

Сканы в комплекте

Треклист

01. Мой друг лучше всех играет блюз [0:03:59.50]
02. Шанхай-блюз [0:04:02.62]
03. Дороги наши разошлись [0:03:37.00]
04. Старые песни [0:04:54.34]
05. Не плачь обо мне [0:04:50.41]
06. Соль мажор [0:03:44.72]
07. Когда ты уйдёшь [0:05:00.50]
08. Рок-н-ролл (Памяти Сергея Кавагоэ) [0:03:35.56]
09. Телега [0:02:40.53]
10. Земляничные поляны [0:03:51.09]
11. Блюз о вреде пьянства [0:03:02.55]
12. 40 лет [0:04:34.51]
13. Подруга номер пять [0:03:33.50]
14. Пусть она станет небом [0:03:46.51]
15. Курить [0:03:22.66]
16. Бумажные солдаты [0:02:28.63]
17. R.Le.Kino [0:03:17.43]
[свернуть]

youtube.com

[свернуть]

EAC лог

Exact Audio Copy V1.3 from 2. September 2016

EAC extraction logfile from 12. July 2018, 20:42

Евгений Маргулис / Пой как Маргулис. Лучшее

Used drive : ATAPI iHAS124 D Adapter: 0 ID: 2

Read mode : Secure
Utilize accurate stream : Yes
Defeat audio cache : Yes
Make use of C2 pointers : No

Read offset correction : 6
Overread into Lead-In and Lead-Out : No
Fill up missing offset samples with silence : Yes
Delete leading and trailing silent blocks : No
Null samples used in CRC calculations : Yes
Used interface : Installed external ASPI interface

Used output format : User Defined Encoder
Selected bitrate : 1024 kBit/s
Quality : High
Add ID3 tag : No
Command line compressor : C:\Program Files (x86)\Exact Audio Copy\Flac\flac.exe
Additional command line options : -6 -V -T "ARTIST=%artist%" -T "TITLE=%title%" -T "ALBUM=%albumtitle%" -T "DATE=%year%" -T "TRACKNUMBER=%tracknr%" -T "GENRE=%genre%" -T "COMMENT=%comment%" -T "BAND=%albuminterpret%" -T "ALBUMARTIST=%albuminterpret%" -T "COMPOSER=%composer%" %haslyrics%--tag-from-file=LYRICS="%lyricsfile%"%haslyrics% -T "DISCNUMBER=%cdnumber%" -T "TOTALDISCS=%totalcds%" -T "TOTALTRACKS=%numtracks%" %hascover%--picture="%coverfile%"%hascover% %source% -o %dest%


TOC of the extracted CD

Track | Start | Length | Start sector | End sector
---------------------------------------------------------
1 | 0:00.00 | 3:59.50 | 0 | 17974
2 | 3:59.50 | 4:02.62 | 17975 | 36186
3 | 8:02.37 | 3:37.00 | 36187 | 52461
4 | 11:39.37 | 4:54.34 | 52462 | 74545
5 | 16:33.71 | 4:50.41 | 74546 | 96336
6 | 21:24.37 | 3:44.72 | 96337 | 113208
7 | 25:09.34 | 5:00.50 | 113209 | 135758
8 | 30:10.09 | 3:35.56 | 135759 | 151939
9 | 33:45.65 | 2:40.53 | 151940 | 163992
10 | 36:26.43 | 3:51.09 | 163993 | 181326
11 | 40:17.52 | 3:02.55 | 181327 | 195031
12 | 43:20.32 | 4:34.51 | 195032 | 215632
13 | 47:55.08 | 3:33.50 | 215633 | 231657
14 | 51:28.58 | 3:46.51 | 231658 | 248658
15 | 55:15.34 | 3:22.66 | 248659 | 263874
16 | 58:38.25 | 2:28.63 | 263875 | 275037
17 | 61:07.13 | 3:17.43 | 275038 | 289855


Range status and errors

Selected range

Filename C:\mm\Маргулис Евгений\2016 - Пой как Маргулис. Лучшее [SZCD 6501-16]\Евгений Маргулис - Пой как Маргулис. Лучшее.wav

Peak level 100.0 %
Extraction speed 1.9 X
Range quality 100.0 %
Test CRC 48041CD2
Copy CRC 48041CD2
Copy OK

No errors occurred

End of status report

---- CUETools DB Plugin V2.1.6

[CTDB TOCID: I6qStq9rcIz1ns0wfQEZEP4mzR8-] found
Submit result: I6qStq9rcIz1ns0wfQEZEP4mzR8- has been confirmed
Track | CTDB Status
1 | (5/5) Accurately ripped
2 | (5/5) Accurately ripped
3 | (5/5) Accurately ripped
4 | (4/5) Accurately ripped
5 | (5/5) Accurately ripped
6 | (5/5) Accurately ripped
7 | (5/5) Accurately ripped
8 | (5/5) Accurately ripped
9 | (5/5) Accurately ripped
10 | (5/5) Accurately ripped
11 | (5/5) Accurately ripped
12 | (5/5) Accurately ripped
13 | (5/5) Accurately ripped
14 | (5/5) Accurately ripped
15 | (5/5) Accurately ripped
16 | (5/5) Accurately ripped
17 | (5/5) Accurately ripped
[свернуть]

Файл CUE

REM GENRE "Blues Rock"
REM DATE 2016
REM DISCID E90F1811
REM COMMENT "ExactAudioCopy v1.3"
PERFORMER "Евгений Маргулис"
TITLE "Пой как Маргулис. Лучшее"
REM COMPOSER ""
FILE "Евгений Маргулис - Пой как Маргулис. Лучшее.flac" WAVE
TRACK 01 AUDIO
TITLE "Мой друг лучше всех играет блюз"
PERFORMER "Евгений Маргулис"
REM COMPOSER ""
INDEX 01 00:00:00
TRACK 02 AUDIO
TITLE "Шанхай-блюз"
PERFORMER "Евгений Маргулис"
REM COMPOSER ""
INDEX 01 03:59:50
TRACK 03 AUDIO
TITLE "Дороги наши разошлись"
PERFORMER "Евгений Маргулис"
REM COMPOSER ""
INDEX 01 08:02:37
TRACK 04 AUDIO
TITLE "Старые песни"
PERFORMER "Евгений Маргулис"
REM COMPOSER ""
INDEX 01 11:39:37
TRACK 05 AUDIO
TITLE "Не плачь обо мне"
PERFORMER "Евгений Маргулис"
REM COMPOSER ""
INDEX 01 16:33:71
TRACK 06 AUDIO
TITLE "Соль мажор"
PERFORMER "Евгений Маргулис"
REM COMPOSER ""
INDEX 01 21:24:37
TRACK 07 AUDIO
TITLE "Когда ты уйдёшь"
PERFORMER "Евгений Маргулис"
REM COMPOSER ""
INDEX 01 25:09:34
TRACK 08 AUDIO
TITLE "Рок-н-ролл (Памяти Сергея Кавагоэ)"
PERFORMER "Евгений Маргулис"
REM COMPOSER ""
INDEX 01 30:10:09
TRACK 09 AUDIO
TITLE "Телега"
PERFORMER "Евгений Маргулис"
REM COMPOSER ""
INDEX 01 33:45:65
TRACK 10 AUDIO
TITLE "Земляничные поляны"
PERFORMER "Евгений Маргулис"
REM COMPOSER ""
INDEX 01 36:26:43
TRACK 11 AUDIO
TITLE "Блюз о вреде пьянства"
PERFORMER "Евгений Маргулис"
REM COMPOSER ""
INDEX 01 40:17:52
TRACK 12 AUDIO
TITLE "40 лет"
PERFORMER "Евгений Маргулис"
REM COMPOSER ""
INDEX 01 43:20:32
TRACK 13 AUDIO
TITLE "Подруга номер пять"
PERFORMER "Евгений Маргулис"
REM COMPOSER ""
INDEX 01 47:55:08
TRACK 14 AUDIO
TITLE "Пусть она станет небом"
PERFORMER "Евгений Маргулис"
REM COMPOSER ""
INDEX 01 51:28:58
TRACK 15 AUDIO
TITLE "Курить"
PERFORMER "Евгений Маргулис"
REM COMPOSER ""
INDEX 01 55:15:34
TRACK 16 AUDIO
TITLE "Бумажные солдаты"
PERFORMER "Евгений Маргулис"
REM COMPOSER ""
INDEX 01 58:38:25
TRACK 17 AUDIO
TITLE "R.Le.Kino"
PERFORMER "Евгений Маргулис"
REM COMPOSER ""
INDEX 01 61:07:13
[свернуть]

Лог проверки качества

AUDIOCHECKER v2.0 beta (build 457) - by Dester -
~~~~~~~~~~~~~~~~~~~~~~~~~~~~~~~~~~
-=== НЕ РЕДАКТИРУЙТЕ ЭТОТ ФАЙЛ! ===-

Путь: ...\2016 - Пой как Маргулис. Лучшее [SZCD 6501-16]

1 -=- Евгений Маргулис - Пой как Маргулис. Лучшее.flac -=- CDDA (100%)

246093860
[свернуть]

Спектр частот

[свернуть]

Скачать Евгений Маргулис - Пой как Маргулис. Лучшее



password: sergych
[свернуть]

Контрольная сумма (хеш-сумма) архива

MD5: 5a829f8309ef1e480c504c28a51c114e
[свернуть]
My opinion of release: 10/10
__________________
TAIFUN.Wings of Soul

Вверх
Похожие темы
Тема Автор Раздел Ответов Последнее сообщение
Альбом Евгений Маргулис - Евгений Маргулис sergych Blues Rock 0 13.06.2016 19:49
Альбом Евгений Маргулис - Продолжение следует sergych Blues Rock 0 10.05.2015 23:30
Релиз Евгений Маргулис - Маргулис sergych Blues Rock 0 08.05.2013 08:38
Сборник Евгений Маргулис - Best... sergych Blues Rock 0 22.04.2013 22:18
Сборник Пикник - Лучшее RRock-melomanXP Russian Rock 0 06.11.2009 17:50


Метки
2016 , blues , blues rock , rock , евгений маргулис , пой как маргулис. лучшее

Опции темы

Ваши права в разделе
Вы не можете создавать новые темы
Вы не можете отвечать в темах
Вы не можете прикреплять вложения
Вы не можете редактировать свои сообщения

Быстрый переход



Текущее время: 06:00. Часовой пояс GMT +3.
Powered by vBulletin® Version 3.8.10
Copyright ©2000 - 2018, vBulletin Solutions, Inc. Перевод: zCarot
© 2008 - 2018 Taifun With Song
Яндекс.Метрика