TAIFUN With Song
Навигация
А знаете ли Вы, что...
Какой наркотик, по распространённому мнению, оказал прямое влияние на выбор названия одной из песен Beatles?
«Когда Beatles записали песню "Lucy in the Sky with Diamonds", Джон Леннон объяснил происхождение названия песни тем, что так окрестил свой рисунок его сын Джулиан. Однако многие усмотрели в этом названии намёк на наркотик LSD, ведь именно такая аббревиатура складывалась из его первых букв, а BBC и вовсе запретило песню к ротации. Позже Пол Маккартни рассказал, что влияние LSD на эту песню довольно очевидно.»
 
Опции темы

  #1
Старый 11.07.2018, 16:08
sergych
Координатор
Досье
 
Аватар для sergych
Релиз Billy Ocean - S.O.U.L.


2012 - Billy Ocean - S.O.U.L.




Исполнитель/Artist: Billy Ocean
Альбом/Album: S.O.U.L.
Год/Year: 2012
Жанр/Genre: Contemporary R&B, dance-pop, soul
Страна/Country: Германия
Рекорд-лейбл/Record label: Sony Music
Номер в каталоге/Catalogue #: 88691903422
Формат/Format: Free Lossless Audio Codec (*.flac)
Качество/Quality: Lossless
Тип рипа/RIP Type: image+.cue
Продолжительность/Length: 00:45:10
Источник/Source: Собственный рип
Размер/Size: 353.0 MB

Сканы в комплекте

Треклист

01. When The Going Gets Tough, The Tough Get Going [0:04:08.44]
02. Caribbean Queen (No More Love On The Run) [0:04:05.04]
03. Love Zone [0:04:12.64]
04. Nights (Feel Like Getting Down) [0:04:42.18]
05. Mystery Lady [0:03:55.06]
06. Suddenly [0:03:52.13]
07. There'll Be Sad Songs (To Make You Cry) [0:04:51.43]
08. Get Outta My Dreams, Get Into My Car [0:04:45.45]
09. Loverboy [0:04:08.72]
10. Stay The Night [0:06:27.32]
[свернуть]

youtube.com

[свернуть]

EAC лог

Exact Audio Copy V1.3 from 2. September 2016

EAC extraction logfile from 11. July 2018, 0:53

Billy Ocean / S.O.U.L.

Used drive : ATAPI iHAS124 D Adapter: 0 ID: 2

Read mode : Secure
Utilize accurate stream : Yes
Defeat audio cache : Yes
Make use of C2 pointers : No

Read offset correction : 6
Overread into Lead-In and Lead-Out : No
Fill up missing offset samples with silence : Yes
Delete leading and trailing silent blocks : No
Null samples used in CRC calculations : Yes
Used interface : Installed external ASPI interface

Used output format : User Defined Encoder
Selected bitrate : 1024 kBit/s
Quality : High
Add ID3 tag : No
Command line compressor : C:\Program Files (x86)\Exact Audio Copy\Flac\flac.exe
Additional command line options : -6 -V -T "ARTIST=%artist%" -T "TITLE=%title%" -T "ALBUM=%albumtitle%" -T "DATE=%year%" -T "TRACKNUMBER=%tracknr%" -T "GENRE=%genre%" -T "COMMENT=%comment%" -T "BAND=%albuminterpret%" -T "ALBUMARTIST=%albuminterpret%" -T "COMPOSER=%composer%" %haslyrics%--tag-from-file=LYRICS="%lyricsfile%"%haslyrics% -T "DISCNUMBER=%cdnumber%" -T "TOTALDISCS=%totalcds%" -T "TOTALTRACKS=%numtracks%" %hascover%--picture="%coverfile%"%hascover% %source% -o %dest%


TOC of the extracted CD

Track | Start | Length | Start sector | End sector
---------------------------------------------------------
1 | 0:00.00 | 4:08.44 | 0 | 18643
2 | 4:08.44 | 4:05.04 | 18644 | 37022
3 | 8:13.48 | 4:12.64 | 37023 | 55986
4 | 12:26.37 | 4:42.18 | 55987 | 77154
5 | 17:08.55 | 3:55.06 | 77155 | 94785
6 | 21:03.61 | 3:52.13 | 94786 | 112198
7 | 24:55.74 | 4:51.43 | 112199 | 134066
8 | 29:47.42 | 4:45.45 | 134067 | 155486
9 | 34:33.12 | 4:08.72 | 155487 | 174158
10 | 38:42.09 | 6:27.32 | 174159 | 203215


Range status and errors

Selected range

Filename C:\mm\Billy Ocean\2012 - S.O.U.L. [88691903422]\Billy Ocean - S.O.U.L..wav

Peak level 100.0 %
Extraction speed 1.8 X
Range quality 100.0 %
Test CRC 3C17B26E
Copy CRC 3C17B26E
Copy OK

No errors occurred

End of status report

---- CUETools DB Plugin V2.1.6

[CTDB TOCID: ssUvFddchW2Q_f1oc4oJp5roKhA-] found
Submit result: ssUvFddchW2Q_f1oc4oJp5roKhA- has been confirmed
Track | CTDB Status
1 | (7/7) Accurately ripped
2 | (7/7) Accurately ripped
3 | (7/7) Accurately ripped
4 | (7/7) Accurately ripped
5 | (7/7) Accurately ripped
6 | (7/7) Accurately ripped
7 | (7/7) Accurately ripped
8 | (7/7) Accurately ripped
9 | (7/7) Accurately ripped
10 | (7/7) Accurately ripped
[свернуть]

Файл CUE

REM GENRE Pop
REM DATE 2012
REM DISCID 870A950A
REM COMMENT "ExactAudioCopy v1.3"
PERFORMER "Billy Ocean"
TITLE "S.O.U.L."
REM COMPOSER ""
FILE "Billy Ocean - S.O.U.L..flac" WAVE
TRACK 01 AUDIO
TITLE "When The Going Gets Tough, The Tough Get Going"
PERFORMER "Billy Ocean"
REM COMPOSER ""
INDEX 01 00:00:00
TRACK 02 AUDIO
TITLE "Caribbean Queen (No More Love On The Run)"
PERFORMER "Billy Ocean"
REM COMPOSER ""
INDEX 01 04:08:44
TRACK 03 AUDIO
TITLE "Love Zone"
PERFORMER "Billy Ocean"
REM COMPOSER ""
INDEX 01 08:13:48
TRACK 04 AUDIO
TITLE "Nights (Feel Like Getting Down)"
PERFORMER "Billy Ocean"
REM COMPOSER ""
INDEX 01 12:26:37
TRACK 05 AUDIO
TITLE "Mystery Lady"
PERFORMER "Billy Ocean"
REM COMPOSER ""
INDEX 01 17:08:55
TRACK 06 AUDIO
TITLE "Suddenly"
PERFORMER "Billy Ocean"
REM COMPOSER ""
INDEX 01 21:03:61
TRACK 07 AUDIO
TITLE "There'll Be Sad Songs (To Make You Cry)"
PERFORMER "Billy Ocean"
REM COMPOSER ""
INDEX 01 24:55:74
TRACK 08 AUDIO
TITLE "Get Outta My Dreams, Get Into My Car"
PERFORMER "Billy Ocean"
REM COMPOSER ""
INDEX 00 29:46:17
INDEX 01 29:47:42
TRACK 09 AUDIO
TITLE "Loverboy"
PERFORMER "Billy Ocean"
REM COMPOSER ""
INDEX 00 34:32:51
INDEX 01 34:33:12
TRACK 10 AUDIO
TITLE "Stay The Night"
PERFORMER "Billy Ocean"
REM COMPOSER ""
INDEX 01 38:42:09
[свернуть]

Лог проверки качества

AUDIOCHECKER v2.0 beta (build 457) - by Dester -
~~~~~~~~~~~~~~~~~~~~~~~~~~~~~~~~~~
-=== НЕ РЕДАКТИРУЙТЕ ЭТОТ ФАЙЛ! ===-

Путь: ...\2012 - S.O.U.L. [88691903422]

1 -=- Billy Ocean - S.O.U.L..flac -=- CDDA (100%)

163694788
[свернуть]

Спектр частот

[свернуть]

Скачать Billy Ocean - S.O.U.L.



password: sergych
[свернуть]

Контрольная сумма (хеш-сумма) архива

MD5: 7be2f3076d8c76c135098c2e4118b16f
[свернуть]
My opinion of release: 10/10
__________________
TAIFUN.Wings of Soul

Вверх
5 пользователя(ей) сказали cпасибо:
Показать список поблагодаривших
Похожие темы
Тема Автор Раздел Ответов Последнее сообщение
Альбом Billy Ocean - Love Zone sergych Зарубежная Поп-Музыка 0 16.09.2015 22:48
Альбом Billy Ocean - Suddenly sergych Зарубежная Поп-Музыка 0 22.03.2014 22:12
Альбом Billy Ocean - Time To Move On sergych Зарубежная Поп-Музыка 0 17.01.2014 20:49
Сборник Billy Ocean - Ultimate Collection PUPOKIN Disco 0 15.08.2011 10:02
Альбом Billy Ocean - The Very Best Of PUPOKIN R&B 0 02.07.2010 09:57


Метки
2012 , billy ocean , contemporary r&b , dance-pop , s.o.u.l. , soul

Опции темы

Ваши права в разделе
Вы не можете создавать новые темы
Вы не можете отвечать в темах
Вы не можете прикреплять вложения
Вы не можете редактировать свои сообщения

Быстрый переход



Текущее время: 01:59. Часовой пояс GMT +3.
Powered by vBulletin® Version 3.8.10
Copyright ©2000 - 2018, vBulletin Solutions, Inc. Перевод: zCarot
© 2008 - 2018 Taifun With Song
Яндекс.Метрика