TAIFUN With Song
Навигация
Вернуться   TAIFUN With Song > Music (обменник) > Rock > Soft Rock
Расширенный поиск
Soft Rock Это музыкальный стиль, который использует технику рок-н-ролла чтобы достичь более мягкого, более приятного для слуха звука, чтобы такую музыку было приятно слушать, например, на работе или за рулем. Soft rock всегда поется с высокими голосами, если певец мужчина, то он будет петь фальцетом, слова soft rock’а всегда сфокусированы на приятные темы, такие, как любовь, ежедневная жизнь и дружба.

А знаете ли Вы, что...
Почему среди китайцев и вьетнамцев больше в процентном отношении людей с абсолютным слухом?
«Большинство диалектов китайского, вьетнамский и некоторые другие языки Азии и Африки являются тональными, то есть один и тот же слог может иметь разные значения в зависимости от высоты произносимого звука. Среди носителей тональных языков отмечается больший процент людей с абсолютным слухом, так как они естественным образом привыкают к различению тонов с раннего детства.»
 
Опции темы

  #1
Старый 08.06.2008, 00:32
sergych
Координатор
Досье
 
Аватар для sergych
По умолчанию Chris de Burgh - Crusader

1979 - Crusader



Исполнитель/Artist: Chris De Burgh
Альбом/Album: Crusader
Год/Year: 1979
Издатель/Label: A&M Records
Жанр/Genre: Soft Rock / Blues Rock / Pop Rock / Adult contemporary
Формат/Format: mp3 CBR
Качество/Quality: 320 kbps JStereo
Размер/Size: 112.3 mb
Продолжительность/Length: 00:44:02

сканы в комплекте
тексты песен и обложка внесены в теги треков

Треклист

01 - Carry On
02 - I Had The Love In My Eyes
03 - Something Else Again
04 - The Girl With April in Her Eyes
05 - Just In Time
06 - Carry On (reprise)
07 - The Devil's Eye
08 - It's Such A Long Way Home
09 - Old-Fashioned People
10 - Quiet Moments
11 - Crusader
The Fall Of Jerusalem
In The Court Of Saladin
The Battlefield
Finale
12 - You and Me
[свернуть]

Скачать Chris De Burgh - Crusader (1979)




Password: sergych
[свернуть]


My opinion of release: 8/10

Участники записи

Release info RInfo

Четвёртый студийник, выпушенный под лейблом A&M Records. Альбом был записан под руководством Andrew Powell, работавшим над ранними альбомами Alan Parsons Project, и при участии музыкантов этой группы.
__________________
TAIFUN.Wings of Soul


Последний раз редактировалось sergych, 28.03.2017 в 21:48. Причина: перезаливка
Вверх
  #2
Старый 28.03.2017, 21:52
sergych
Координатор
Досье
 
Аватар для sergych
Релиз Chris de Burgh - Crusader


1979 - Chris de Burgh - Crusader




Исполнитель/Artist: Chris de Burgh
Альбом/Album: Crusader
Год/Year: 1979
Жанр/Genre: Soft Rock, Blues Rock, Pop Rock, Adult contemporary
Страна/Country: Великобритания
Рекорд-лейбл/Record label: A&M Records
Номер в каталоге/Catalogue #: CDA 4746
Формат/Format: Free Lossless Audio Codec (*.flac)
Качество/Quality: Lossless
Тип рипа/RIP Type: image+.cue
Продолжительность/Length: 00:44:03
Источник/Source: Собственный рип
Размер/Size: 241.4 MB

Сканы в комплекте

Треклист

01. Carry On [0:03:58.55]
02. I Had The Love In My Eyes [0:03:30.15]
03. Something Else Again [0:03:46.62]
04. Girl With April In Her Eyes, The [0:04:15.20]
05. Just In Time [0:05:13.10]
06. Carry On (Reprise) [0:00:34.10]
07. Devil's Eye, The [0:04:34.55]
08. It's Such A Long Way Home [0:02:51.38]
09. Old-Fashioned People [0:03:28.12]
10. Quiet Moments [0:01:41.43]
11. Crusader [0:08:54.62]
12. You And Me [0:01:13.68]
[свернуть]

youtube.com

[свернуть]

Исполнители/Performers

Chris de Burgh: six and twelve-string acoustic guitars, lead and harmony vocals
Ian Bairnson: electric guitars, harmony vocals (3)
David Cripps: French horn solo (3)
Stuart Elliott: drums, percussion
Skaila Kanga: harp (4)
Chris Laurence: double bass (4)
Francis Monkman: harpsichord (4)
Mike Moran: piano, organ, synthesizers
David Paton: bass, harmony vocals (3, 8)
Andrew Powell: piano (5, 9, 11, 12), orchestra and choir arrangements, conductor
Olive Simpson: harmony vocals (8)
[свернуть]

EAC лог

Exact Audio Copy V1.3 from 2. September 2016

EAC extraction logfile from 27. March 2017, 1:08

Chris de Burgh / Crusader

Used drive : PLEXTOR DVDR PX-716A Adapter: 1 ID: 0

Read mode : Secure
Utilize accurate stream : Yes
Defeat audio cache : Yes
Make use of C2 pointers : No

Read offset correction : 30
Overread into Lead-In and Lead-Out : No
Fill up missing offset samples with silence : Yes
Delete leading and trailing silent blocks : No
Null samples used in CRC calculations : Yes
Used interface : Native Win32 interface for Win NT & 2000

Used output format : User Defined Encoder
Selected bitrate : 1024 kBit/s
Quality : High
Add ID3 tag : No
Command line compressor : C:\Program Files (x86)\Exact Audio Copy\FLAC\FLAC.EXE
Additional command line options : -6 -V -T "ARTIST=%artist%" -T "TITLE=%title%" -T "ALBUM=%albumtitle%" -T "DATE=%year%" -T "TRACKNUMBER=%tracknr%" -T "GENRE=%genre%" -T "COMMENT=%comment%" -T "BAND=%albuminterpret%" -T "ALBUMARTIST=%albuminterpret%" -T "COMPOSER=%composer%" %haslyrics%--tag-from-file=LYRICS="%lyricsfile%"%haslyrics% -T "DISCNUMBER=%cdnumber%" -T "TOTALDISCS=%totalcds%" -T "TOTALTRACKS=%numtracks%" %hascover%--picture="%coverfile%"%hascover% %source% -o %dest%


TOC of the extracted CD

Track | Start | Length | Start sector | End sector
---------------------------------------------------------
1 | 0:00.40 | 3:58.55 | 40 | 17944
2 | 3:59.20 | 3:30.15 | 17945 | 33709
3 | 7:29.35 | 3:46.62 | 33710 | 50721
4 | 11:16.22 | 4:15.20 | 50722 | 69866
5 | 15:31.42 | 5:13.10 | 69867 | 93351
6 | 20:44.52 | 0:34.10 | 93352 | 95911
7 | 21:18.62 | 4:34.55 | 95912 | 116516
8 | 25:53.42 | 2:51.38 | 116517 | 129379
9 | 28:45.05 | 3:28.12 | 129380 | 144991
10 | 32:13.17 | 1:41.43 | 144992 | 152609
11 | 33:54.60 | 8:54.62 | 152610 | 192721
12 | 42:49.47 | 1:13.68 | 192722 | 198264


Range status and errors

Selected range

Filename C:\mm\Chris De Burgh\1979 - Crusader [CDA 4746]\Chris de Burgh - Crusader.wav

Peak level 92.5 %
Extraction speed 9.6 X
Range quality 100.0 %
Test CRC C57C2106
Copy CRC C57C2106
Copy OK

No errors occurred


AccurateRip summary

Track 1 accurately ripped (confidence 4) [64BBF24D] (AR v2)
Track 2 accurately ripped (confidence 4) [6290D856] (AR v2)
Track 3 accurately ripped (confidence 4) [F9A69399] (AR v2)
Track 4 accurately ripped (confidence 4) [FCCD9DFD] (AR v2)
Track 5 accurately ripped (confidence 4) [191775FA] (AR v2)
Track 6 accurately ripped (confidence 4) [6AE966B1] (AR v2)
Track 7 accurately ripped (confidence 4) [98BF3464] (AR v2)
Track 8 accurately ripped (confidence 3) [B8A409B9] (AR v2)
Track 9 accurately ripped (confidence 4) [1CF087A5] (AR v2)
Track 10 accurately ripped (confidence 4) [55E44631] (AR v2)
Track 11 accurately ripped (confidence 4) [F5C7B313] (AR v2)
Track 12 accurately ripped (confidence 4) [B6ABA71D] (AR v2)

All tracks accurately ripped

End of status report

---- CUETools DB Plugin V2.1.6

[CTDB TOCID: 1nUC3BrdQE5iHDL..27DT.MAKPM-] found
Submit result: 1nUC3BrdQE5iHDL..27DT.MAKPM- has been confirmed
Track | CTDB Status
1 | (2/3) Accurately ripped
2 | (3/3) Accurately ripped
3 | (2/3) Accurately ripped
4 | (3/3) Accurately ripped
5 | (3/3) Accurately ripped
6 | (3/3) Accurately ripped
7 | (3/3) Accurately ripped
8 | (3/3) Accurately ripped
9 | (3/3) Accurately ripped
10 | (3/3) Accurately ripped
11 | (3/3) Accurately ripped
12 | (3/3) Accurately ripped
[свернуть]

Файл CUE

REM GENRE Pop
REM DATE 1979
REM DISCID 9C0A530C
REM COMMENT "ExactAudioCopy v1.3"
PERFORMER "Chris de Burgh"
TITLE "Crusader"
REM COMPOSER ""
FILE "Chris de Burgh - Crusader.flac" WAVE
TRACK 01 AUDIO
TITLE "Carry On"
PERFORMER "Chris de Burgh"
REM COMPOSER ""
INDEX 00 00:00:00
INDEX 01 00:00:40
TRACK 02 AUDIO
TITLE "I Had The Love In My Eyes"
PERFORMER "Chris de Burgh"
REM COMPOSER ""
INDEX 01 03:59:20
TRACK 03 AUDIO
TITLE "Something Else Again"
PERFORMER "Chris de Burgh"
REM COMPOSER ""
INDEX 01 07:29:35
TRACK 04 AUDIO
TITLE "Girl With April In Her Eyes, The"
PERFORMER "Chris de Burgh"
REM COMPOSER ""
INDEX 01 11:16:22
TRACK 05 AUDIO
TITLE "Just In Time"
PERFORMER "Chris de Burgh"
REM COMPOSER ""
INDEX 01 15:31:42
TRACK 06 AUDIO
TITLE "Carry On (Reprise)"
PERFORMER "Chris de Burgh"
REM COMPOSER ""
INDEX 01 20:44:52
TRACK 07 AUDIO
TITLE "Devil's Eye, The"
PERFORMER "Chris de Burgh"
REM COMPOSER ""
INDEX 01 21:18:62
TRACK 08 AUDIO
TITLE "It's Such A Long Way Home"
PERFORMER "Chris de Burgh"
REM COMPOSER ""
INDEX 01 25:53:42
TRACK 09 AUDIO
TITLE "Old-Fashioned People"
PERFORMER "Chris de Burgh"
REM COMPOSER ""
INDEX 01 28:45:05
TRACK 10 AUDIO
TITLE "Quiet Moments"
PERFORMER "Chris de Burgh"
REM COMPOSER ""
INDEX 01 32:13:17
TRACK 11 AUDIO
TITLE "Crusader"
PERFORMER "Chris de Burgh"
REM COMPOSER ""
INDEX 01 33:54:60
TRACK 12 AUDIO
TITLE "You And Me"
PERFORMER "Chris de Burgh"
REM COMPOSER ""
INDEX 00 42:44:47
INDEX 01 42:49:47
[свернуть]

Лог проверки качества

AUDIOCHECKER v2.0 beta (build 457) - by Dester -
~~~~~~~~~~~~~~~~~~~~~~~~~~~~~~~~~~
-=== НЕ РЕДАКТИРУЙТЕ ЭТОТ ФАЙЛ! ===-

Путь: ...\1979 - Crusader [CDA 4746]

1 -=- Chris de Burgh - Crusader.flac -=- CDDA (100%)

156932932
[свернуть]

Спектр частот

[свернуть]

Скачать Chris de Burgh - Crusader



password: sergych
[свернуть]

Контрольная сумма (хеш-сумма) архива

MD5: e7422337d5c5fc358f685eec49e9def2
[свернуть]
My opinion of release: 9/10
__________________
TAIFUN.Wings of Soul

Вверх
3 пользователя(ей) сказали cпасибо:
Показать список поблагодаривших
Похожие темы
Тема Автор Раздел Ответов Последнее сообщение
Альбом Chris de Burgh - Power Of Ten sergych Soft Rock 0 17.02.2011 21:28
Альбом Chris de Burgh - Now And Then sergych Soft Rock 0 08.06.2008 00:32
Альбом Chris de Burgh - Man On The Line sergych Soft Rock 0 08.06.2008 00:32
Альбом Chris de Burgh - This Way Up sergych Soft Rock 0 08.06.2008 00:32


Метки
1979 , adult contemporary , blues rock , chris de burgh , crusader , pop rock , soft rock

Опции темы

Ваши права в разделе
Вы не можете создавать новые темы
Вы не можете отвечать в темах
Вы не можете прикреплять вложения
Вы не можете редактировать свои сообщения

Быстрый переход



Текущее время: 20:13. Часовой пояс GMT +3.
Powered by vBulletin® Version 3.8.10
Copyright ©2000 - 2018, vBulletin Solutions, Inc. Перевод: zCarot
© 2008 - 2018 Taifun With Song
Яндекс.Метрика