TAIFUN With Song
Навигация
Вернуться   TAIFUN With Song > Music (обменник) > Rock > Soft Rock
Расширенный поиск
Soft Rock Это музыкальный стиль, который использует технику рок-н-ролла чтобы достичь более мягкого, более приятного для слуха звука, чтобы такую музыку было приятно слушать, например, на работе или за рулем. Soft rock всегда поется с высокими голосами, если певец мужчина, то он будет петь фальцетом, слова soft rock’а всегда сфокусированы на приятные темы, такие, как любовь, ежедневная жизнь и дружба.

А знаете ли Вы, что...
Какой композитор писал музыку, будучи глухим?
«На момент написания своей знаменитой девятой симфонии Бетховен был абсолютно глух.»
 
Опции темы

  #1
Старый 03.04.2017, 21:03
sergych
Координатор
Досье
 
Аватар для sergych
Релиз Stevie Nicks - The Soundstage Sessions


2008 - Stevie Nicks - The Soundstage Sessions




Исполнитель/Artist: Stevie Nicks
Альбом/Album: The Soundstage Sessions
Год/Year: 2008
Жанр/Genre: Soft rock, pop rock, ballad
Страна/Country: Европа
Рекорд-лейбл/Record label: Reprise Records / WEA International
Номер в каталоге/Catalogue #: 9362-49842-1
Формат/Format: Free Lossless Audio Codec (*.flac)
Качество/Quality: Lossless
Тип рипа/RIP Type: image+.cue
Продолжительность/Length: 00:54:29
Источник/Source: Собственный рип
Размер/Size: 419.4 MB

Сканы в комплекте

Треклист

01. Stand Back [0:04:41.00]
02. Crash Into Me [0:05:34.25]
03. Sara [0:06:57.12]
04. If Anyone Falls in Love [0:04:12.63]
05. Landslide [0:04:21.37]
06. How Still My Love [0:07:35.00]
07. Circle Dance [0:04:14.63]
08. Fall from Grace [0:04:36.25]
09. Sorcerer [0:05:01.25]
10. Beauty and the Beast [0:07:14.35]
[свернуть]

youtube.com

[свернуть]

Исполнители/Performers

Stevie Nicks - vocals, tambourine
Vanessa Carlton - vocals, piano on "The One" and "Circle Dance"
Jana Anderson, Lori Nicks, Sharon Celani - backing vocals
Carlos Rios, Waddy Wachtel - guitar
Darrell Smith, Ricky Peterson - keyboards
Lenny Castro - percussion
Al Ortiz - bass
Jimmy Paxson - drums

String Section
Eric Roth - conductor
Janice MacDonald - flute
Deb Stevenson - oboe
Christine Worthing, Greg Flint - horn
Carmen Llop-Kassinger, Christine Keiko Abe, Guillaume Combet, Jennifer Cappelli - violin
Carol Cook - viola
Jocelyn Davis-Beck - cello
Eddie Bayers - drums
Michael Rhodes - bass
Joe Thomas - keyboards
[свернуть]

EAC лог

Exact Audio Copy V1.3 from 2. September 2016

EAC extraction logfile from 3. April 2017, 20:30

Stevie Nicks / The Soundstage Sessions

Used drive : PLEXTOR DVDR PX-716A Adapter: 1 ID: 0

Read mode : Secure
Utilize accurate stream : Yes
Defeat audio cache : Yes
Make use of C2 pointers : No

Read offset correction : 30
Overread into Lead-In and Lead-Out : No
Fill up missing offset samples with silence : Yes
Delete leading and trailing silent blocks : No
Null samples used in CRC calculations : Yes
Used interface : Native Win32 interface for Win NT & 2000

Used output format : User Defined Encoder
Selected bitrate : 1024 kBit/s
Quality : High
Add ID3 tag : No
Command line compressor : C:\Program Files (x86)\Exact Audio Copy\FLAC\FLAC.EXE
Additional command line options : -6 -V -T "ARTIST=%artist%" -T "TITLE=%title%" -T "ALBUM=%albumtitle%" -T "DATE=%year%" -T "TRACKNUMBER=%tracknr%" -T "GENRE=%genre%" -T "COMMENT=%comment%" -T "BAND=%albuminterpret%" -T "ALBUMARTIST=%albuminterpret%" -T "COMPOSER=%composer%" %haslyrics%--tag-from-file=LYRICS="%lyricsfile%"%haslyrics% -T "DISCNUMBER=%cdnumber%" -T "TOTALDISCS=%totalcds%" -T "TOTALTRACKS=%numtracks%" %hascover%--picture="%coverfile%"%hascover% %source% -o %dest%


TOC of the extracted CD

Track | Start | Length | Start sector | End sector
---------------------------------------------------------
1 | 0:00.00 | 4:41.00 | 0 | 21074
2 | 4:41.00 | 5:34.25 | 21075 | 46149
3 | 10:15.25 | 6:57.12 | 46150 | 77436
4 | 17:12.37 | 4:12.63 | 77437 | 96399
5 | 21:25.25 | 4:21.37 | 96400 | 116011
6 | 25:46.62 | 7:35.00 | 116012 | 150136
7 | 33:21.62 | 4:14.63 | 150137 | 169249
8 | 37:36.50 | 4:36.25 | 169250 | 189974
9 | 42:13.00 | 5:01.25 | 189975 | 212574
10 | 47:14.25 | 7:14.35 | 212575 | 245159


Range status and errors

Selected range

Filename C:\mm\Stevie Nicks\2008 - The Soundstage Sessions [9362-49842-1]\Stevie Nicks - The Soundstage Sessions.wav

Peak level 98.7 %
Extraction speed 10.1 X
Range quality 100.0 %
Test CRC 0E9C84D1
Copy CRC 0E9C84D1
Copy OK

No errors occurred


AccurateRip summary

Track 1 accurately ripped (confidence 13) [A57A7EA8] (AR v2)
Track 2 accurately ripped (confidence 14) [16BF80EC] (AR v2)
Track 3 accurately ripped (confidence 14) [513FAB01] (AR v2)
Track 4 accurately ripped (confidence 14) [2E9B8853] (AR v2)
Track 5 accurately ripped (confidence 14) [455B940F] (AR v2)
Track 6 accurately ripped (confidence 14) [4FA17261] (AR v2)
Track 7 accurately ripped (confidence 14) [8AD3756D] (AR v2)
Track 8 accurately ripped (confidence 14) [CDDE5B6D] (AR v2)
Track 9 accurately ripped (confidence 14) [527EA50C] (AR v2)
Track 10 accurately ripped (confidence 14) [09224EE5] (AR v2)

All tracks accurately ripped

End of status report

---- CUETools DB Plugin V2.1.6

[CTDB TOCID: PIYGTqRejb7V0mdNmOue2JchSz8-] found
Submit result: PIYGTqRejb7V0mdNmOue2JchSz8- has been confirmed
Track | CTDB Status
1 | (49/49) Accurately ripped
2 | (49/49) Accurately ripped
3 | (49/49) Accurately ripped
4 | (49/49) Accurately ripped
5 | (49/49) Accurately ripped
6 | (49/49) Accurately ripped
7 | (49/49) Accurately ripped
8 | (49/49) Accurately ripped
9 | (49/49) Accurately ripped
10 | (48/49) Accurately ripped
[свернуть]

Файл CUE

REM GENRE "Soft Rock"
REM DATE 2008
REM DISCID 810CC40A
REM COMMENT "ExactAudioCopy v1.3"
PERFORMER "Stevie Nicks"
TITLE "The Soundstage Sessions"
REM COMPOSER ""
FILE "Stevie Nicks - The Soundstage Sessions.flac" WAVE
TRACK 01 AUDIO
TITLE "Stand Back"
PERFORMER "Stevie Nicks"
REM COMPOSER ""
INDEX 01 00:00:00
TRACK 02 AUDIO
TITLE "Crash Into Me"
PERFORMER "Stevie Nicks"
REM COMPOSER ""
INDEX 00 04:40:19
INDEX 01 04:41:00
TRACK 03 AUDIO
TITLE "Sara"
PERFORMER "Stevie Nicks"
REM COMPOSER ""
INDEX 00 10:14:49
INDEX 01 10:15:25
TRACK 04 AUDIO
TITLE "If Anyone Falls in Love"
PERFORMER "Stevie Nicks"
REM COMPOSER ""
INDEX 00 17:11:64
INDEX 01 17:12:37
TRACK 05 AUDIO
TITLE "Landslide"
PERFORMER "Stevie Nicks"
REM COMPOSER ""
INDEX 00 21:24:19
INDEX 01 21:25:25
TRACK 06 AUDIO
TITLE "How Still My Love"
PERFORMER "Stevie Nicks"
REM COMPOSER ""
INDEX 00 25:45:64
INDEX 01 25:46:62
TRACK 07 AUDIO
TITLE "Circle Dance"
PERFORMER "Stevie Nicks"
REM COMPOSER ""
INDEX 00 33:20:69
INDEX 01 33:21:62
TRACK 08 AUDIO
TITLE "Fall from Grace"
PERFORMER "Stevie Nicks"
REM COMPOSER ""
INDEX 00 37:36:01
INDEX 01 37:36:50
TRACK 09 AUDIO
TITLE "Sorcerer"
PERFORMER "Stevie Nicks"
REM COMPOSER ""
INDEX 00 42:12:06
INDEX 01 42:13:00
TRACK 10 AUDIO
TITLE "Beauty and the Beast"
PERFORMER "Stevie Nicks"
REM COMPOSER ""
INDEX 00 47:13:21
INDEX 01 47:14:25
[свернуть]

Лог проверки качества

AUDIOCHECKER v2.0 beta (build 457) - by Dester -
~~~~~~~~~~~~~~~~~~~~~~~~~~~~~~~~~~
-=== НЕ РЕДАКТИРУЙТЕ ЭТОТ ФАЙЛ! ===-

Путь: ...\2008 - The Soundstage Sessions [9362-49842-1]

1 -=- Stevie Nicks - The Soundstage Sessions.flac -=- CDDA (100%)

195860948
[свернуть]

Спектр частот

[свернуть]

Скачать Stevie Nicks - The Soundstage Sessions



password: sergych
[свернуть]

Контрольная сумма (хеш-сумма) архива

MD5: 77414abf2e68bbe9f34ebab6f0deaa72
[свернуть]
My opinion of release: 10/10
__________________
TAIFUN.Wings of Soul

Вверх
4 пользователя(ей) сказали cпасибо:
Показать список поблагодаривших
Похожие темы
Тема Автор Раздел Ответов Последнее сообщение
Сборник Stevie Nicks - Crystal Visions....The Very Best of Stevie Nicks sergych Soft Rock 1 29.08.2017 13:25
Альбом Stevie Nicks - Rock A Little sergych Pop Rock 0 18.04.2015 17:26
Альбом Stevie Nicks - The Wild Heart sergych Soft Rock 1 05.04.2015 23:44
Альбом Stevie Nicks - Trouble In Shangri-La sergych Rock 0 23.03.2015 20:11
Альбом Stevie Nicks - In Your Dreams sergych Soft Rock 0 19.03.2015 20:04


Метки
2008 , ballad , pop rock , soft rock , stevie nicks , the soundstage sessions

Опции темы

Ваши права в разделе
Вы не можете создавать новые темы
Вы не можете отвечать в темах
Вы не можете прикреплять вложения
Вы не можете редактировать свои сообщения

Быстрый переход



Текущее время: 23:32. Часовой пояс GMT +3.
Powered by vBulletin® Version 3.8.10
Copyright ©2000 - 2018, vBulletin Solutions, Inc. Перевод: zCarot
© 2008 - 2018 Taifun With Song
Яндекс.Метрика