TAIFUN With Song
Навигация
Вернуться   TAIFUN With Song > Music (обменник) > Rock > Soft Rock
Расширенный поиск
Soft Rock Это музыкальный стиль, который использует технику рок-н-ролла чтобы достичь более мягкого, более приятного для слуха звука, чтобы такую музыку было приятно слушать, например, на работе или за рулем. Soft rock всегда поется с высокими голосами, если певец мужчина, то он будет петь фальцетом, слова soft rock’а всегда сфокусированы на приятные темы, такие, как любовь, ежедневная жизнь и дружба.

А знаете ли Вы, что...
За какие заслуги музыкантов принимают в «Клуб 27»?
«Среди известных рок- и блюз-музыкантов весьма значительна доля тех, кто умер в 27 лет. Именно в этом возрасте почему-то возникает статистическая погрешность, выделяющаяся из нормального распределения. Для таких музыкантов даже приняли название «Клуб 27». В него включают Джима Моррисона, Джими Хендрикса, Дженис Джоплин, Курта Кобейна и Брайана Джонса. В 27 лет умер также легендарный советский рок-музыкант и поэт Александр Башлачёв.»
 
Опции темы

  #1
Старый 18.02.2017, 08:14
sergych
Координатор
Досье
 
Аватар для sergych
Релиз Billy Joel - She's Got A Way: Love Songs


2013 - Billy Joel - She's Got A Way: Love Songs




Исполнитель/Artist: Billy Joel
Альбом/Album: She's Got A Way: Love Songs
Год/Year: 2013
Жанр/Genre: Soft Rock, Pop Rock
Страна/Country: Соединённые Штаты
Рекорд-лейбл/Record label: Columbia / Sony Music
Номер в каталоге/Catalogue #: 88765430392
Формат/Format: Free Lossless Audio Codec (*.flac)
Качество/Quality: Lossless
Тип рипа/RIP Type: image+.cue
Продолжительность/Length: 01:19:18
Источник/Source: Собственный рип
Размер/Size: 584.0 MB

Сканы в комплекте

Треклист

01. Travelin' Prayer [0:04:16.61]
02. The Night Is Still Young [0:05:27.49]
03. This Is The Time [0:05:00.32]
04. She's Got A Way (Live) [0:03:01.28]
05. Temptation [0:04:14.64]
06. Nocturne [0:02:53.15]
07. Until The Night [0:06:36.07]
08. She's Right On Time [0:04:14.05]
09. You're My Home [0:03:14.24]
10. Just The Way You Are [0:04:52.09]
11. She's Always A Woman [0:03:21.56]
12. State Of Grace [0:04:30.25]
13. Honesty [0:03:51.28]
14. This Night [0:04:17.58]
15. Shameless [0:04:27.38]
16. An Innocent Man [0:05:19.08]
17. All About Soul (Remix) [0:05:59.74]
18. And So It Goes [0:03:39.44]
[свернуть]

youtube.com

[свернуть]

EAC лог

Exact Audio Copy V1.2 from 12. August 2016

EAC extraction logfile from 14. February 2017, 8:26

Billy Joel / She's Got A Way: Love Songs

Used drive : PLEXTOR DVDR PX-716A Adapter: 1 ID: 0

Read mode : Secure
Utilize accurate stream : Yes
Defeat audio cache : Yes
Make use of C2 pointers : No

Read offset correction : 30
Overread into Lead-In and Lead-Out : No
Fill up missing offset samples with silence : Yes
Delete leading and trailing silent blocks : No
Null samples used in CRC calculations : Yes
Used interface : Native Win32 interface for Win NT & 2000

Used output format : User Defined Encoder
Selected bitrate : 1024 kBit/s
Quality : High
Add ID3 tag : No
Command line compressor : C:\Program Files (x86)\Exact Audio Copy\FLAC\FLAC.EXE
Additional command line options : -6 -V -T "ARTIST=%artist%" -T "TITLE=%title%" -T "ALBUM=%albumtitle%" -T "DATE=%year%" -T "TRACKNUMBER=%tracknr%" -T "GENRE=%genre%" -T "COMMENT=%comment%" -T "BAND=%albuminterpret%" -T "ALBUMARTIST=%albuminterpret%" -T "COMPOSER=%composer%" %haslyrics%--tag-from-file=LYRICS="%lyricsfile%"%haslyrics% -T "DISCNUMBER=%cdnumber%" -T "TOTALDISCS=%totalcds%" -T "TOTALTRACKS=%numtracks%" %hascover%--picture="%coverfile%"%hascover% %source% -o %dest%


TOC of the extracted CD

Track | Start | Length | Start sector | End sector
---------------------------------------------------------
1 | 0:00.00 | 4:16.61 | 0 | 19260
2 | 4:16.61 | 5:27.49 | 19261 | 43834
3 | 9:44.35 | 5:00.32 | 43835 | 66366
4 | 14:44.67 | 3:01.28 | 66367 | 79969
5 | 17:46.20 | 4:14.64 | 79970 | 99083
6 | 22:01.09 | 2:53.15 | 99084 | 112073
7 | 24:54.24 | 6:36.07 | 112074 | 141780
8 | 31:30.31 | 4:14.05 | 141781 | 160835
9 | 35:44.36 | 3:14.24 | 160836 | 175409
10 | 38:58.60 | 4:52.09 | 175410 | 197318
11 | 43:50.69 | 3:21.56 | 197319 | 212449
12 | 47:12.50 | 4:30.25 | 212450 | 232724
13 | 51:43.00 | 3:51.28 | 232725 | 250077
14 | 55:34.28 | 4:17.58 | 250078 | 269410
15 | 59:52.11 | 4:27.38 | 269411 | 289473
16 | 64:19.49 | 5:19.08 | 289474 | 313406
17 | 69:38.57 | 5:59.74 | 313407 | 340405
18 | 75:38.56 | 3:39.44 | 340406 | 356874


Range status and errors

Selected range

Filename C:\mm\Billy Joel\2013 - She's Got A Way. Love Songs [88765430392]\Billy Joel - She's Got A Way. Love Songs.wav

Peak level 100.0 %
Extraction speed 3.8 X
Range quality 100.0 %
Test CRC 59B9371B
Copy CRC 59B9371B
Copy OK

No errors occurred


AccurateRip summary

Track 1 accurately ripped (confidence 20) [6CDC3050] (AR v2)
Track 2 accurately ripped (confidence 20) [CCED96CA] (AR v2)
Track 3 accurately ripped (confidence 21) [B8C2CED7] (AR v2)
Track 4 accurately ripped (confidence 20) [099C46FB] (AR v2)
Track 5 accurately ripped (confidence 20) [EC278DB2] (AR v2)
Track 6 accurately ripped (confidence 20) [FDF6095B] (AR v2)
Track 7 accurately ripped (confidence 20) [56F08264] (AR v2)
Track 8 accurately ripped (confidence 20) [0E9E79AA] (AR v2)
Track 9 accurately ripped (confidence 20) [937184B3] (AR v2)
Track 10 accurately ripped (confidence 20) [5241D25E] (AR v2)
Track 11 accurately ripped (confidence 20) [A6CB01DE] (AR v2)
Track 12 accurately ripped (confidence 20) [30C7EDA0] (AR v2)
Track 13 accurately ripped (confidence 20) [13F04F90] (AR v2)
Track 14 accurately ripped (confidence 20) [6EB6E335] (AR v2)
Track 15 accurately ripped (confidence 20) [979ED16F] (AR v2)
Track 16 accurately ripped (confidence 21) [8024BBD0] (AR v2)
Track 17 accurately ripped (confidence 19) [5326DB95] (AR v2)
Track 18 accurately ripped (confidence 17) [A935A6EC] (AR v2)

All tracks accurately ripped

End of status report

---- CUETools DB Plugin V2.1.6

[CTDB TOCID: qQzSw634K3HC3OF64..D6RhRO9w-] found
Submit result: qQzSw634K3HC3OF64..D6RhRO9w- has been confirmed
Track | CTDB Status
1 | (31/31) Accurately ripped
2 | (31/31) Accurately ripped
3 | (31/31) Accurately ripped
4 | (31/31) Accurately ripped
5 | (31/31) Accurately ripped
6 | (31/31) Accurately ripped
7 | (31/31) Accurately ripped
8 | (31/31) Accurately ripped
9 | (31/31) Accurately ripped
10 | (31/31) Accurately ripped
11 | (31/31) Accurately ripped
12 | (31/31) Accurately ripped
13 | (31/31) Accurately ripped
14 | (31/31) Accurately ripped
15 | (31/31) Accurately ripped
16 | (31/31) Accurately ripped
17 | (30/31) Accurately ripped
18 | (31/31) Accurately ripped
[свернуть]

Файл CUE

REM GENRE Rock
REM DATE 2013
REM DISCID 08129612
REM COMMENT "ExactAudioCopy v1.2"
PERFORMER "Billy Joel"
TITLE "She's Got A Way: Love Songs"
REM COMPOSER ""
FILE "Billy Joel - She's Got A Way. Love Songs.flac" WAVE
TRACK 01 AUDIO
TITLE "Travelin' Prayer"
PERFORMER "Billy Joel"
REM COMPOSER ""
INDEX 01 00:00:00
TRACK 02 AUDIO
TITLE "The Night Is Still Young"
PERFORMER "Billy Joel"
REM COMPOSER ""
INDEX 01 04:16:61
TRACK 03 AUDIO
TITLE "This Is The Time"
PERFORMER "Billy Joel"
REM COMPOSER ""
INDEX 00 09:42:62
INDEX 01 09:44:35
TRACK 04 AUDIO
TITLE "She's Got A Way (Live)"
PERFORMER "Billy Joel"
REM COMPOSER ""
INDEX 00 14:43:33
INDEX 01 14:44:67
TRACK 05 AUDIO
TITLE "Temptation"
PERFORMER "Billy Joel"
REM COMPOSER ""
INDEX 00 17:43:71
INDEX 01 17:46:20
TRACK 06 AUDIO
TITLE "Nocturne"
PERFORMER "Billy Joel"
REM COMPOSER ""
INDEX 00 22:00:32
INDEX 01 22:01:09
TRACK 07 AUDIO
TITLE "Until The Night"
PERFORMER "Billy Joel"
REM COMPOSER ""
INDEX 01 24:54:24
TRACK 08 AUDIO
TITLE "She's Right On Time"
PERFORMER "Billy Joel"
REM COMPOSER ""
INDEX 01 31:30:31
TRACK 09 AUDIO
TITLE "You're My Home"
PERFORMER "Billy Joel"
REM COMPOSER ""
INDEX 00 35:42:42
INDEX 01 35:44:36
TRACK 10 AUDIO
TITLE "Just The Way You Are"
PERFORMER "Billy Joel"
REM COMPOSER ""
INDEX 00 38:58:14
INDEX 01 38:58:60
TRACK 11 AUDIO
TITLE "She's Always A Woman"
PERFORMER "Billy Joel"
REM COMPOSER ""
INDEX 00 43:49:47
INDEX 01 43:50:69
TRACK 12 AUDIO
TITLE "State Of Grace"
PERFORMER "Billy Joel"
REM COMPOSER ""
INDEX 00 47:12:36
INDEX 01 47:12:50
TRACK 13 AUDIO
TITLE "Honesty"
PERFORMER "Billy Joel"
REM COMPOSER ""
INDEX 00 51:42:46
INDEX 01 51:43:00
TRACK 14 AUDIO
TITLE "This Night"
PERFORMER "Billy Joel"
REM COMPOSER ""
INDEX 01 55:34:28
TRACK 15 AUDIO
TITLE "Shameless"
PERFORMER "Billy Joel"
REM COMPOSER ""
INDEX 00 59:51:66
INDEX 01 59:52:11
TRACK 16 AUDIO
TITLE "An Innocent Man"
PERFORMER "Billy Joel"
REM COMPOSER ""
INDEX 00 64:18:38
INDEX 01 64:19:49
TRACK 17 AUDIO
TITLE "All About Soul (Remix)"
PERFORMER "Billy Joel"
REM COMPOSER ""
INDEX 00 69:38:39
INDEX 01 69:38:57
TRACK 18 AUDIO
TITLE "And So It Goes"
PERFORMER "Billy Joel"
REM COMPOSER ""
INDEX 00 75:36:68
INDEX 01 75:38:56
[свернуть]

Лог проверки качества

AUDIOCHECKER v2.0 beta (build 457) - by Dester -
~~~~~~~~~~~~~~~~~~~~~~~~~~~~~~~~~~
-=== НЕ РЕДАКТИРУЙТЕ ЭТОТ ФАЙЛ! ===-

Путь: ...\2013 - She's Got A Way. Love Songs [88765430392]

1 -=- Billy Joel - She's Got A Way. Love Songs.flac -=- CDDA (100%)

57281780
[свернуть]

Спектр частот

[свернуть]

Скачать Billy Joel - She's Got A Way: Love Songs



password: sergych
[свернуть]

Контрольная сумма (хеш-сумма) архива

MD5: cb13f1eaa85cb79b36c908669966a5b1
[свернуть]
My opinion of release: 9/10
__________________
TAIFUN.Wings of Soul

Вверх
Пользователь сказал cпасибо:
swint68 (18.02.2017)
Похожие темы
Тема Автор Раздел Ответов Последнее сообщение
Альбом Billy Joel - The Stranger sergych Soft Rock 0 27.11.2016 10:49
Альбом Billy Joel - River Of Dreams sergych Rock 0 25.10.2015 17:04
Альбом Billy Ocean - Love Zone sergych Зарубежная Поп-Музыка 0 16.09.2015 22:48
Сборник Billy Joel - Greatest Hits. Volume I & II sergych Pop Rock 0 28.07.2014 22:10
VA MNM Love Songs PUPOKIN Зарубежная Поп-Музыка 0 06.02.2011 09:45


Метки
2013 , billy joel , pop rock , she's got a way: love songs , soft rock

Опции темы

Ваши права в разделе
Вы не можете создавать новые темы
Вы не можете отвечать в темах
Вы не можете прикреплять вложения
Вы не можете редактировать свои сообщения

Быстрый переход



Текущее время: 16:25. Часовой пояс GMT +3.
Powered by vBulletin® Version 3.8.10
Copyright ©2000 - 2018, vBulletin Solutions, Inc. Перевод: zCarot
© 2008 - 2018 Taifun With Song
Яндекс.Метрика