TAIFUN With Song
Навигация
Вернуться   TAIFUN With Song > Music (обменник) > Rock > Soft Rock
Расширенный поиск
Soft Rock Это музыкальный стиль, который использует технику рок-н-ролла чтобы достичь более мягкого, более приятного для слуха звука, чтобы такую музыку было приятно слушать, например, на работе или за рулем. Soft rock всегда поется с высокими голосами, если певец мужчина, то он будет петь фальцетом, слова soft rock’а всегда сфокусированы на приятные темы, такие, как любовь, ежедневная жизнь и дружба.

А знаете ли Вы, что...
Какой русский музыкальный инструмент мы называем цыганским?
«Семиструнную гитару во всём мире называют русской гитарой, а у нас также распространено название цыганская гитара.»
 
Опции темы

  #1
Старый 05.02.2017, 09:20
sergych
Координатор
Досье
 
Аватар для sergych
Релиз Stevie Nicks - Crystal Visions....The Very Best of Stevie Nicks


2007 - Stevie Nicks - Crystal Visions....The Very Best of Stevie Nicks




Исполнитель/Artist: Stevie Nicks
Альбом/Album: Crystal Visions....The Very Best of Stevie Nicks
Год/Year: 2007
Жанр/Genre: Soft rock, pop rock, ballad
Страна/Country: Европа
Рекорд-лейбл/Record label: Reprise Records
Номер в каталоге/Catalogue #: 9362-49998-1
Формат/Format: Free Lossless Audio Codec (*.flac)
Качество/Quality: Lossless
Тип рипа/RIP Type: image+.cue
Продолжительность/Length: 01:18:31
Источник/Source: Собственный рип
Размер/Size: 692.6 MB

Сканы в комплекте

Треклист

01. Edge Of Seventeen [0:05:29.51]
02. I Can't Wait [0:04:35.63]
03. Sorcerer [0:04:54.69]
04. If Anyone Falls In Love [0:04:07.10]
05. Stop Draggin' My Heart Around (with Tom Petty) [0:04:02.57]
06. Silver Springs (with Fleetwood Mac) [0:04:45.64]
07. Dreams (with Deep Dish) [0:03:46.67]
08. Rhiannon (Live) [0:07:01.60]
09. Rooms On Fire [0:04:34.39]
10. Talk To Me [0:04:10.02]
11. Landslide (Live) (with The Melbourne Symphony) [0:04:14.28]
12. Stand Back [0:04:48.28]
13. Planets Of The Universe [0:04:45.50]
14. Rock And Roll (Live) [0:04:03.27]
15. Leather And Lace (with Don Henley) [0:03:54.62]
16. Edge Of Seventeen (Live) (with The Melbourne Symphony) [0:09:14.42]
[свернуть]

youtube.com

[свернуть]

EAC лог

Exact Audio Copy V1.2 from 12. August 2016

EAC extraction logfile from 31. January 2017, 21:43

Stevie Nicks / Crystal Visions....The Very Best of Stevie Nicks

Used drive : PLEXTOR DVDR PX-716A Adapter: 1 ID: 0

Read mode : Secure
Utilize accurate stream : Yes
Defeat audio cache : Yes
Make use of C2 pointers : No

Read offset correction : 30
Overread into Lead-In and Lead-Out : No
Fill up missing offset samples with silence : Yes
Delete leading and trailing silent blocks : No
Null samples used in CRC calculations : Yes
Used interface : Native Win32 interface for Win NT & 2000

Used output format : User Defined Encoder
Selected bitrate : 1024 kBit/s
Quality : High
Add ID3 tag : No
Command line compressor : C:\Program Files (x86)\Exact Audio Copy\FLAC\FLAC.EXE
Additional command line options : -6 -V -T "ARTIST=%artist%" -T "TITLE=%title%" -T "ALBUM=%albumtitle%" -T "DATE=%year%" -T "TRACKNUMBER=%tracknr%" -T "GENRE=%genre%" -T "COMMENT=%comment%" -T "BAND=%albuminterpret%" -T "ALBUMARTIST=%albuminterpret%" -T "COMPOSER=%composer%" %haslyrics%--tag-from-file=LYRICS="%lyricsfile%"%haslyrics% -T "DISCNUMBER=%cdnumber%" -T "TOTALDISCS=%totalcds%" -T "TOTALTRACKS=%numtracks%" %hascover%--picture="%coverfile%"%hascover% %source% -o %dest%


TOC of the extracted CD

Track | Start | Length | Start sector | End sector
---------------------------------------------------------
1 | 0:00.00 | 5:29.51 | 0 | 24725
2 | 5:29.51 | 4:35.63 | 24726 | 45413
3 | 10:05.39 | 4:54.69 | 45414 | 67532
4 | 15:00.33 | 4:07.10 | 67533 | 86067
5 | 19:07.43 | 4:02.57 | 86068 | 104274
6 | 23:10.25 | 4:45.64 | 104275 | 125713
7 | 27:56.14 | 3:46.67 | 125714 | 142730
8 | 31:43.06 | 7:01.60 | 142731 | 174365
9 | 38:44.66 | 4:34.39 | 174366 | 194954
10 | 43:19.30 | 4:10.02 | 194955 | 213706
11 | 47:29.32 | 4:14.28 | 213707 | 232784
12 | 51:43.60 | 4:48.28 | 232785 | 254412
13 | 56:32.13 | 4:45.50 | 254413 | 275837
14 | 61:17.63 | 4:03.27 | 275838 | 294089
15 | 65:21.15 | 3:54.62 | 294090 | 311701
16 | 69:16.02 | 9:14.42 | 311702 | 353293


Range status and errors

Selected range

Filename C:\mm\Fleetwood Mac\Solo\Stevie Nicks\2007 - Crystal Visions...The Very Best of Stevie Nicks [9362-49998-1]\Stevie Nicks - Crystal Visions....The Very Best of Stevie Nicks.wav

Peak level 98.8 %
Extraction speed 14.4 X
Range quality 100.0 %
Test CRC 9B2EEEBA
Copy CRC 9B2EEEBA
Copy OK

No errors occurred


AccurateRip summary

Track 1 accurately ripped (confidence 34) [7859F7AB] (AR v2)
Track 2 accurately ripped (confidence 34) [A04C187F] (AR v2)
Track 3 accurately ripped (confidence 35) [373CBB04] (AR v2)
Track 4 accurately ripped (confidence 34) [195FD351] (AR v2)
Track 5 accurately ripped (confidence 34) [B7AE5B7F] (AR v2)
Track 6 accurately ripped (confidence 33) [E12801D5] (AR v2)
Track 7 accurately ripped (confidence 34) [FEB4B1D3] (AR v2)
Track 8 accurately ripped (confidence 33) [50B0B804] (AR v2)
Track 9 accurately ripped (confidence 33) [F8FA22E3] (AR v2)
Track 10 accurately ripped (confidence 33) [6B49A86E] (AR v2)
Track 11 accurately ripped (confidence 33) [8D7A297E] (AR v2)
Track 12 accurately ripped (confidence 33) [422278AE] (AR v2)
Track 13 accurately ripped (confidence 34) [99FFB0DC] (AR v2)
Track 14 accurately ripped (confidence 33) [9F41F140] (AR v2)
Track 15 accurately ripped (confidence 33) [6FACA75A] (AR v2)
Track 16 accurately ripped (confidence 31) [F909C375] (AR v2)

All tracks accurately ripped

End of status report

---- CUETools DB Plugin V2.1.6

[CTDB TOCID: Rg6hgDKyjdSUJOdwPso9hnbtRWQ-] found
Submit result: Rg6hgDKyjdSUJOdwPso9hnbtRWQ- has been confirmed
Track | CTDB Status
1 | (148/245) Accurately ripped
2 | (150/245) Accurately ripped
3 | (150/245) Accurately ripped
4 | (148/245) Accurately ripped
5 | (150/245) Accurately ripped
6 | (150/245) Accurately ripped
7 | (150/245) Accurately ripped
8 | (150/245) Accurately ripped
9 | (147/245) Accurately ripped
10 | (148/245) Accurately ripped
11 | (149/245) Accurately ripped
12 | (148/245) Accurately ripped
13 | (147/245) Accurately ripped
14 | (149/245) Accurately ripped
15 | (149/245) Accurately ripped
16 | (145/245) Accurately ripped
[свернуть]

Файл CUE

REM GENRE Rock
REM DATE 2007
REM DISCID E2126610
REM COMMENT "ExactAudioCopy v1.2"
PERFORMER "Stevie Nicks"
TITLE "Crystal Visions....The Very Best of Stevie Nicks"
REM COMPOSER ""
FILE "Stevie Nicks - Crystal Visions....The Very Best of Stevie Nicks.flac" WAVE
TRACK 01 AUDIO
TITLE "Edge Of Seventeen"
PERFORMER "Stevie Nicks"
REM COMPOSER ""
INDEX 01 00:00:00
TRACK 02 AUDIO
TITLE "I Can't Wait"
PERFORMER "Stevie Nicks"
REM COMPOSER ""
INDEX 01 05:29:51
TRACK 03 AUDIO
TITLE "Sorcerer"
PERFORMER "Stevie Nicks"
REM COMPOSER ""
INDEX 01 10:05:39
TRACK 04 AUDIO
TITLE "If Anyone Falls In Love"
PERFORMER "Stevie Nicks"
REM COMPOSER ""
INDEX 01 15:00:33
TRACK 05 AUDIO
TITLE "Stop Draggin' My Heart Around"
PERFORMER "Stevie Nicks with Tom Petty"
REM COMPOSER ""
INDEX 01 19:07:43
TRACK 06 AUDIO
TITLE "Silver Springs"
PERFORMER "Stevie Nicks with Fleetwood Mac"
REM COMPOSER ""
INDEX 01 23:10:25
TRACK 07 AUDIO
TITLE "Dreams"
PERFORMER "Stevie Nicks with Deep Dish"
REM COMPOSER ""
INDEX 01 27:56:14
TRACK 08 AUDIO
TITLE "Rhiannon (Live)"
PERFORMER "Stevie Nicks"
REM COMPOSER ""
INDEX 01 31:43:06
TRACK 09 AUDIO
TITLE "Rooms On Fire"
PERFORMER "Stevie Nicks"
REM COMPOSER ""
INDEX 01 38:44:66
TRACK 10 AUDIO
TITLE "Talk To Me"
PERFORMER "Stevie Nicks"
REM COMPOSER ""
INDEX 01 43:19:30
TRACK 11 AUDIO
TITLE "Landslide (Live)"
PERFORMER "Stevie Nicks with The Melbourne Symphony"
REM COMPOSER ""
INDEX 01 47:29:32
TRACK 12 AUDIO
TITLE "Stand Back"
PERFORMER "Stevie Nicks"
REM COMPOSER ""
INDEX 01 51:43:60
TRACK 13 AUDIO
TITLE "Planets Of The Universe"
PERFORMER "Stevie Nicks"
REM COMPOSER ""
INDEX 01 56:32:13
TRACK 14 AUDIO
TITLE "Rock And Roll (Live)"
PERFORMER "Stevie Nicks"
REM COMPOSER ""
INDEX 01 61:17:63
TRACK 15 AUDIO
TITLE "Leather And Lace"
PERFORMER "Stevie Nicks with Don Henley"
REM COMPOSER ""
INDEX 01 65:21:15
TRACK 16 AUDIO
TITLE "Edge Of Seventeen (Live)"
PERFORMER "Stevie Nicks with The Melbourne Symphony"
REM COMPOSER ""
INDEX 01 69:16:02
[свернуть]

Лог проверки качества

AUDIOCHECKER v2.0 beta (build 457) - by Dester -
~~~~~~~~~~~~~~~~~~~~~~~~~~~~~~~~~~
-=== НЕ РЕДАКТИРУЙТЕ ЭТОТ ФАЙЛ! ===-

Путь: ...\2007 - Crystal Visions...The Very Best of Stevie Nicks [9362-49998-1]

1 -=- Stevie Nicks - Crystal Visions....The Very Best of Stevie Nicks.flac -=- CDDA (100%)

88013844
[свернуть]

Спектр частот

[свернуть]

Скачать Stevie Nicks - Crystal Visions....The Very Best of Stevie Nicks



password: sergych
[свернуть]

Контрольная сумма (хеш-сумма) архива

MD5: 9187ca4e91e6089f859b62a306e2c838
[свернуть]
My opinion of release: 10/10
__________________
TAIFUN.Wings of Soul

Вверх
5 пользователя(ей) сказали cпасибо:
Показать список поблагодаривших
  #2
Старый 29.08.2017, 13:25
Павел1
Меломан
Досье
 
Аватар для Павел1
По умолчанию Re: Stevie Nicks - Crystal Visions....The Very Best of Stevie Nicks

Возможно, меломанов, изучающих творческое наследие Cyndi Lauper, заинтересует эта весьма необычная исполнительница. Для меня Stevie Nicks стала настоящим открытием!

Вверх
Пользователь сказал cпасибо:
sergych (30.08.2017)
Похожие темы
Тема Автор Раздел Ответов Последнее сообщение
Альбом Stevie Nicks - Street Angel sergych Soft Rock 0 30.08.2015 18:30
Альбом Stevie Nicks - Rock A Little sergych Pop Rock 0 18.04.2015 17:26
Альбом Stevie Nicks - The Wild Heart sergych Soft Rock 1 05.04.2015 23:44
Альбом Stevie Nicks - Trouble In Shangri-La sergych Rock 0 23.03.2015 20:11
Альбом Stevie Nicks - In Your Dreams sergych Soft Rock 0 19.03.2015 20:04


Метки
2007 , ballad , crystal visions....the very best of stevie nicks , pop rock , soft rock , stevie nicks

Опции темы

Ваши права в разделе
Вы не можете создавать новые темы
Вы не можете отвечать в темах
Вы не можете прикреплять вложения
Вы не можете редактировать свои сообщения

Быстрый переход



Текущее время: 00:49. Часовой пояс GMT +3.
Powered by vBulletin® Version 3.8.10
Copyright ©2000 - 2018, vBulletin Solutions, Inc. Перевод: zCarot
© 2008 - 2018 Taifun With Song
Яндекс.Метрика