TAIFUN With Song
Навигация
Вернуться   TAIFUN With Song > Music (обменник) > Rock > Art Rock
Расширенный поиск
Art Rock ART ROCK - под этим термином подразумевается такая форма рока, в которой совмещаются электронное звучание, ритм-энд-блюз, восточный и средневековый европейский фольклор, классика и джаз

А знаете ли Вы, что...
Какой наркотик, по распространённому мнению, оказал прямое влияние на выбор названия одной из песен Beatles?
«Когда Beatles записали песню "Lucy in the Sky with Diamonds", Джон Леннон объяснил происхождение названия песни тем, что так окрестил свой рисунок его сын Джулиан. Однако многие усмотрели в этом названии намёк на наркотик LSD, ведь именно такая аббревиатура складывалась из его первых букв, а BBC и вовсе запретило песню к ротации. Позже Пол Маккартни рассказал, что влияние LSD на эту песню довольно очевидно.»
 
Опции темы

  #1
Старый 27.02.2012, 17:52
sergych
Координатор
Досье
 
Аватар для sergych
Релиз The Sweet - Level Headed


1978(1991) - The Sweet - Level Headed




Исполнитель/Artist: The Sweet
Альбом/Album: The Sweet
Год/Year: 1978
Ремастеринг/Remaster: 1991
Жанр/Genre: Rock, Hard rock, Art rock
Рекорд-лейбл/Record label: Polydor / Repertoire Records
Формат/Format: Free Lossless Audio Codec (*.flac)
Качество/Quality: Lossless
Тип рипа/RIP Type: image+.cue
Продолжительность/Length: 00:54:02
Источник/Source: Из интернета
Размер/Size: 329.1 MB

Сканы в комплекте

Треклист

01 - Dream On
02 - Love Is Like Oxygen
03 - California Nights
04 - Strong Love
05 - Fountain
06 - Anthem No. 1 (Lady Of The Lake)
07 - Silverbird
08 - Lettres D'Amour
09 - Anthem No. 2
10 - Air On A Loop

Bonus Tracks:
11 - Love Is Like Oxygen (Single Version)
12 - Cover Girl
13 - California Nights (Single Version)
14 - Show Me The Way
[свернуть]

youtube.com

[свернуть]

Исполнители/Performers

Brian Connolly – lead and backing vocals
Andy Scott – lead vocals on "Dream On" and "Fountain", guitar, synthesizer, backing vocals
Mick Tucker – drums, percussion, backing vocals
Steve Priest – lead vocals on "California Nights", bass guitar, synthesizer voice, backing vocals

Additional musicians:
Geoff Westley – keyboards, string arrangements on "Anthem No. I (Lady of the Lake)" and "Anthem No. II"
Ronnie Asprey – brass
Richard Harvey – baroque wind
Stevie Lange – vocals on "Lettres D'Amour"
[свернуть]

EAC лог

Exact Audio Copy V0.99 prebeta 5 from 4. May 2009

Отчёт EAC об извлечении, выполненном 21. ноября 2009, 18:19

Sweet / Level Headed

Дисковод: TEAC CD-W540E Adapter: 0 ID: 1

Режим чтения : Достоверность
Использование точного потока : Да
Отключение кэша аудио : Да
Использование указателей C2 : Нет

Коррекция смещения при чтении : 686
Способность читать области Lead-in и Lead-out : Нет
Заполнение пропущенных сэмплов тишиной : Да
Удаление блоков с тишиной в начале и конце : Нет
При вычислениях CRC использовались нулевые сэмплы : Да
Интерфейс : Встроенный Win32-интерфейс для Win NT/2000

Выходной формат : Внутренние WAV-операции
Формат сэмплов : 44.100 Гц; 16 бит; стерео


TOC извлечённого CD

Трек | Старт | Длительность | Начальный сектор | Конечный сектор
---------------------------------------------------------------------
1 | 0:00.33 | 2:53.45 | 33 | 13052
2 | 2:54.03 | 6:53.35 | 13053 | 44062
3 | 9:47.38 | 3:45.37 | 44063 | 60974
4 | 13:33.00 | 3:28.25 | 60975 | 76599
5 | 17:01.25 | 4:44.20 | 76600 | 97919
6 | 21:45.45 | 4:11.03 | 97920 | 116747
7 | 25:56.48 | 3:26.50 | 116748 | 132247
8 | 29:23.23 | 3:30.27 | 132248 | 148024
9 | 32:53.50 | 1:02.35 | 148025 | 152709
10 | 33:56.10 | 5:59.05 | 152710 | 179639
11 | 39:55.15 | 3:48.13 | 179640 | 196752
12 | 43:43.28 | 3:34.47 | 196753 | 212849
13 | 47:18.00 | 3:22.28 | 212850 | 228027
14 | 50:40.28 | 3:22.12 | 228028 | 243189


Характеристики диапазона извлечения и сообщения об ошибках

Выбранный диапазон

Имя файла D:\RIPPED\Sweet - Level Headed.wav

Пиковый уровень 70.6 %
Качество диапазона 100.0 %
CRC теста 15B0B4C5
CRC копии 15B0B4C5
Копирование... OK

Ошибок не произошло


AccurateRip: сводка

Трек 1 точное извлечение (доверие 7) [43C48FA9]
Трек 2 точное извлечение (доверие 7) [556FF846]
Трек 3 точное извлечение (доверие 8) [8A1BCAF6]
Трек 4 точное извлечение (доверие 7) [D4649A5E]
Трек 5 точное извлечение (доверие 7) [0BA307D2]
Трек 6 точное извлечение (доверие 7) [15A4BBA7]
Трек 7 точное извлечение (доверие 7) [06711B62]
Трек 8 точное извлечение (доверие 7) [E961EE5F]
Трек 9 точное извлечение (доверие 7) [BC8960E9]
Трек 10 точное извлечение (доверие 7) [FF9A4FD3]
Трек 11 точное извлечение (доверие 7) [E1774ECD]
Трек 12 точное извлечение (доверие 7) [8C80B888]
Трек 13 точное извлечение (доверие 7) [6BAF4A19]
Трек 14 точное извлечение (доверие 7) [6DDD9FAA]

Все треки извлечены точно

Конец отчёта
[свернуть]

Файл CUE

REM GENRE Rock
REM DATE 1978
REM DISCID C90CAA0E
REM COMMENT "ExactAudioCopy v0.99pb5"
PERFORMER "Sweet"
TITLE "Level Headed"
FILE "Sweet - Level Headed.wav" WAVE
TRACK 01 AUDIO
TITLE "Dream On"
PERFORMER "Sweet"
INDEX 00 00:00:00
INDEX 01 00:00:33
TRACK 02 AUDIO
TITLE "Love Is Like Oxygen"
PERFORMER "Sweet"
INDEX 00 02:50:18
INDEX 01 02:54:03
TRACK 03 AUDIO
TITLE "California Nights"
PERFORMER "Sweet"
INDEX 00 09:45:05
INDEX 01 09:47:38
TRACK 04 AUDIO
TITLE "Strong Love"
PERFORMER "Sweet"
INDEX 00 13:29:45
INDEX 01 13:33:00
TRACK 05 AUDIO
TITLE "Fountain"
PERFORMER "Sweet"
INDEX 00 16:58:38
INDEX 01 17:01:25
TRACK 06 AUDIO
TITLE "Anthem No. 1 (Lady Of The Lake)"
PERFORMER "Sweet"
INDEX 00 21:44:13
INDEX 01 21:45:45
TRACK 07 AUDIO
TITLE "Silverbird"
PERFORMER "Sweet"
INDEX 00 25:53:55
INDEX 01 25:56:48
TRACK 08 AUDIO
TITLE "Lettres D'Amour"
PERFORMER "Sweet"
INDEX 00 29:21:03
INDEX 01 29:23:23
TRACK 09 AUDIO
TITLE "Anthem No. 2"
PERFORMER "Sweet"
INDEX 00 32:51:15
INDEX 01 32:53:50
TRACK 10 AUDIO
TITLE "Air On A Loop"
PERFORMER "Sweet"
INDEX 01 33:56:10
TRACK 11 AUDIO
TITLE "Love Is Like Oxygen (Single Version) (Bonus Track)"
PERFORMER "Sweet"
INDEX 00 39:51:63
INDEX 01 39:55:15
TRACK 12 AUDIO
TITLE "Cover Girl (Bonus Track)"
PERFORMER "Sweet"
INDEX 00 43:40:33
INDEX 01 43:43:28
TRACK 13 AUDIO
TITLE "California Nights (Single Version) (Bonus Track)"
PERFORMER "Sweet"
INDEX 00 47:15:05
INDEX 01 47:18:00
TRACK 14 AUDIO
TITLE "Show Me The Way (Bonus Track)"
PERFORMER "Sweet"
INDEX 00 50:37:73
INDEX 01 50:40:28
[свернуть]

Лог проверки качества

AUDIOCHECKER v2.0 beta (build 457) - by Dester -
~~~~~~~~~~~~~~~~~~~~~~~~~~~~~~~~~~
-=== НЕ РЕДАКТИРУЙТЕ ЭТОТ ФАЙЛ! ===-

Путь: ...\1978(1991) - Level Headed

1 -=- Sweet - Level Headed.flac -=- MPEG (95%)

178067140
[свернуть]

Скачать The Sweet - Level Headed



password: sergych
[свернуть]
My opinion of release: 10/10

Release info RInfo

Последний альбом группы в составе Brian Connolly, Andy Scott, Mick Tucker и Steve Priest.
__________________
TAIFUN.Wings of Soul


Последний раз редактировалось sergych, 02.11.2013 в 17:32. Причина: перезаливка
Вверх
Похожие темы
Тема Автор Раздел Ответов Последнее сообщение
Релиз Sweet Emma and the Mood Swingers - Home Sweet Home PUPOKIN Jazz и Blues 0 24.03.2011 11:20
Релиз Jus Ed - Next Level PUPOKIN Deep House 0 27.05.2010 10:14
Альбом Gilzene And The Blue Light Mento Band – Sweet Sweet Jamaica PUPOKIN Reggae 0 18.05.2010 10:51
Релиз Sarah Reeves - Sweet Sweet Sound PUPOKIN Pop Rock 0 15.04.2009 13:11


Метки
1978 , art rock , hard rock , rock , sweet , the sweet

Опции темы

Ваши права в разделе
Вы не можете создавать новые темы
Вы не можете отвечать в темах
Вы не можете прикреплять вложения
Вы не можете редактировать свои сообщения

Быстрый переход



Текущее время: 03:34. Часовой пояс GMT +3.
Powered by vBulletin® Version 3.8.10
Copyright ©2000 - 2018, vBulletin Solutions, Inc. Перевод: zCarot
© 2008 - 2018 Taifun With Song
Яндекс.Метрика