TAIFUN With Song
Навигация
А знаете ли Вы, что...
Кто написал песню «Во поле берёза стояла»?
«Многие источники утверждают, что песню «Во поле берёза стояла» написал татарский поэт Нигмат Ибрагимов. Однако эта песня всё-таки является русской народной.»
 
Опции темы

  #1
Старый 10.04.2017, 21:21
sergych
Координатор
Досье
 
Аватар для sergych
Релиз Shakira - Laundry Service


2001 - Shakira - Laundry Service




Исполнитель/Artist: Shakira
Альбом/Album: Laundry Service
Год/Year: 2001
Жанр/Genre: pop
Страна/Country: Нидерланды
Рекорд-лейбл/Record label: Sony Music
Номер в каталоге/Catalogue #: 498720 2
Формат/Format: Free Lossless Audio Codec (*.flac)
Качество/Quality: Lossless
Тип рипа/RIP Type: image+.cue
Продолжительность/Length: 00:49:19
Источник/Source: Собственный рип
Размер/Size: 491.5 MB

Сканы в комплекте

Треклист

01. Objection (Tango) [0:03:44.17]
02. Underneath Your Clothes [0:03:45.23]
03. Whenever, Wherever [0:03:16.62]
04. Rules [0:03:40.65]
05. The One [0:03:43.50]
06. Ready For The Good Times [0:04:14.05]
07. Fool [0:03:51.70]
08. Te Dejo Madrid [0:03:07.28]
09. Poem To A Horse [0:04:09.05]
10. Que Me Quedes Tu [0:04:48.35]
11. Eyes Like Yours (Ojos Asi) [0:03:58.02]
12. Suerte (Whenever, Wherever) [0:03:16.03]
13. Te Aviso, Te Anuncio (Tango) [0:03:43.32]
[свернуть]

youtube.com

[свернуть]

Исполнители/Performers

Shakira – producer, songwriter, arranger, vocals, harmonica, logo design
Tim Mitchell – guitar, mandolin
Lester Mendez – keyboards
Luis Fernando Ochoa – guitar, keyboards
Adam Zimmon, Brian Ray, Tim Pierce – guitar
Julio Hernandez, Paul Bushnell – bass guitar
Pablo Aslan – acoustic bass
Brendan Buckley, Joseph Quevedo – drums, percussion
Abe Laboriel, Jr., Abraham Laboriel – drums
Archie Pena, Emilio Estefan Jr., Edwin Bonilla, Richard Bravo – percussion
David Alsina - bandoneon
[свернуть]

EAC лог

Exact Audio Copy V1.3 from 2. September 2016

EAC extraction logfile from 10. April 2017, 20:06

Shakira / Laundry Service

Used drive : PLEXTOR DVDR PX-716A Adapter: 1 ID: 0

Read mode : Secure
Utilize accurate stream : Yes
Defeat audio cache : Yes
Make use of C2 pointers : No

Read offset correction : 30
Overread into Lead-In and Lead-Out : No
Fill up missing offset samples with silence : Yes
Delete leading and trailing silent blocks : No
Null samples used in CRC calculations : Yes
Used interface : Native Win32 interface for Win NT & 2000

Used output format : User Defined Encoder
Selected bitrate : 1024 kBit/s
Quality : High
Add ID3 tag : No
Command line compressor : C:\Program Files (x86)\Exact Audio Copy\FLAC\FLAC.EXE
Additional command line options : -6 -V -T "ARTIST=%artist%" -T "TITLE=%title%" -T "ALBUM=%albumtitle%" -T "DATE=%year%" -T "TRACKNUMBER=%tracknr%" -T "GENRE=%genre%" -T "COMMENT=%comment%" -T "BAND=%albuminterpret%" -T "ALBUMARTIST=%albuminterpret%" -T "COMPOSER=%composer%" %haslyrics%--tag-from-file=LYRICS="%lyricsfile%"%haslyrics% -T "DISCNUMBER=%cdnumber%" -T "TOTALDISCS=%totalcds%" -T "TOTALTRACKS=%numtracks%" %hascover%--picture="%coverfile%"%hascover% %source% -o %dest%


TOC of the extracted CD

Track | Start | Length | Start sector | End sector
---------------------------------------------------------
1 | 0:08.00 | 3:44.17 | 600 | 17416
2 | 3:52.17 | 3:45.23 | 17417 | 34314
3 | 7:37.40 | 3:16.62 | 34315 | 49076
4 | 10:54.27 | 3:40.65 | 49077 | 65641
5 | 14:35.17 | 3:43.50 | 65642 | 82416
6 | 18:18.67 | 4:14.05 | 82417 | 101471
7 | 22:32.72 | 3:51.70 | 101472 | 118866
8 | 26:24.67 | 3:07.28 | 118867 | 132919
9 | 29:32.20 | 4:09.05 | 132920 | 151599
10 | 33:41.25 | 4:48.35 | 151600 | 173234
11 | 38:29.60 | 3:58.02 | 173235 | 191086
12 | 42:27.62 | 3:16.03 | 191087 | 205789
13 | 45:43.65 | 3:43.32 | 205790 | 222546
14 | 51:59.22 | 0:08.00 | 233947 | 234546


Range status and errors

Selected range

Filename C:\mm\Shakira\2001 - Laundry Service [498720 2]\Shakira - Laundry Service.wav

Peak level 100.0 %
Extraction speed 12.3 X
Range quality 100.0 %
Test CRC 23C89CE0
Copy CRC 23C89CE0
Copy OK

No errors occurred


AccurateRip summary

Track 1 accurately ripped (confidence 168) [F73E251F] (AR v2)
Track 2 accurately ripped (confidence 157) [D782D188] (AR v2)
Track 3 accurately ripped (confidence 169) [542E3BB3] (AR v2)
Track 4 accurately ripped (confidence 171) [207BA841] (AR v2)
Track 5 accurately ripped (confidence 169) [C4AF9C44] (AR v2)
Track 6 accurately ripped (confidence 171) [AC65C0A6] (AR v2)
Track 7 accurately ripped (confidence 169) [63448557] (AR v2)
Track 8 accurately ripped (confidence 151) [31DBCD5A] (AR v2)
Track 9 accurately ripped (confidence 155) [F657B31E] (AR v2)
Track 10 accurately ripped (confidence 172) [46F45F76] (AR v2)
Track 11 accurately ripped (confidence 156) [6B97E7C4] (AR v2)
Track 12 accurately ripped (confidence 155) [09677CA8] (AR v2)
Track 13 accurately ripped (confidence 171) [DEF2B192] (AR v2)

All tracks accurately ripped

End of status report

---- CUETools DB Plugin V2.1.6

[CTDB TOCID: DNPHxWuLj.hG.95OXe5H9sTmoSY-] found
Submit result: DNPHxWuLj.hG.95OXe5H9sTmoSY- has been confirmed
Track | CTDB Status
1 | (1022/1107) Accurately ripped, or (3/1107) differs in 5 samples @01:56:61
2 | (1012/1107) Accurately ripped, or (6/1107) differs in 230 samples @00:17:52-00:17:53, or (3/1107) differs in 230 samples @00:17:52-00:17:53
3 | (1015/1107) Accurately ripped, or (3/1107) differs in 5 samples @02:08:60,02:21:66
4 | (1015/1107) Accurately ripped, or (3/1107) differs in 3 samples @00:07:40
5 | (1020/1107) Accurately ripped, or (3/1107) differs in 3 samples @02:10:42
6 | (1022/1107) Accurately ripped
7 | (1022/1107) Accurately ripped
8 | (1003/1107) Accurately ripped, or (4/1107) differs in 4 samples @01:01:10, or (6/1107) differs in 4 samples @01:01:10, or (3/1107) differs in 6 samples @00:33:16,01:01:10
9 | (1013/1107) Accurately ripped, or (6/1107) differs in 240 samples @04:02:04-04:02:05, or (3/1107) differs in 240 samples @04:02:04-04:02:05
10 | (1015/1107) Accurately ripped
11 | (1006/1107) Accurately ripped, or (6/1107) differs in 240 samples @01:50:12-01:50:13, or (3/1107) differs in 240 samples @01:50:12-01:50:13
12 | (1003/1107) Accurately ripped, or (6/1107) differs in 240 samples @02:09:07-02:09:08, or (3/1107) differs in 245 samples @00:06:25,02:09:07-02:09:08,03:12:31
13 | (1013/1107) Accurately ripped
[свернуть]

Файл CUE

REM GENRE Latin
REM DATE 2001
REM DISCID B40C2F0E
REM COMMENT "ExactAudioCopy v1.3"
PERFORMER "Shakira"
TITLE "Laundry Service"
REM COMPOSER ""
FILE "Shakira - Laundry Service.flac" WAVE
TRACK 01 AUDIO
TITLE "Objection (Tango)"
PERFORMER "Shakira"
REM COMPOSER ""
INDEX 00 00:00:00
INDEX 01 00:08:00
TRACK 02 AUDIO
TITLE "Underneath Your Clothes"
PERFORMER "Shakira"
REM COMPOSER ""
INDEX 00 03:51:07
INDEX 01 03:52:17
TRACK 03 AUDIO
TITLE "Whenever, Wherever"
PERFORMER "Shakira"
REM COMPOSER ""
INDEX 00 07:36:40
INDEX 01 07:37:40
TRACK 04 AUDIO
TITLE "Rules"
PERFORMER "Shakira"
REM COMPOSER ""
INDEX 00 10:53:70
INDEX 01 10:54:27
TRACK 05 AUDIO
TITLE "The One"
PERFORMER "Shakira"
REM COMPOSER ""
INDEX 00 14:33:52
INDEX 01 14:35:17
TRACK 06 AUDIO
TITLE "Ready For The Good Times"
PERFORMER "Shakira"
REM COMPOSER ""
INDEX 00 18:18:18
INDEX 01 18:18:67
TRACK 07 AUDIO
TITLE "Fool"
PERFORMER "Shakira"
REM COMPOSER ""
INDEX 00 22:32:15
INDEX 01 22:32:72
TRACK 08 AUDIO
TITLE "Te Dejo Madrid"
PERFORMER "Shakira"
REM COMPOSER ""
INDEX 00 26:23:40
INDEX 01 26:24:67
TRACK 09 AUDIO
TITLE "Poem To A Horse"
PERFORMER "Shakira"
REM COMPOSER ""
INDEX 00 29:31:72
INDEX 01 29:32:20
TRACK 10 AUDIO
TITLE "Que Me Quedes Tu"
PERFORMER "Shakira"
REM COMPOSER ""
INDEX 00 33:38:70
INDEX 01 33:41:25
TRACK 11 AUDIO
TITLE "Eyes Like Yours (Ojos Asi)"
PERFORMER "Shakira"
REM COMPOSER ""
INDEX 00 38:28:67
INDEX 01 38:29:60
TRACK 12 AUDIO
TITLE "Suerte (Whenever, Wherever)"
PERFORMER "Shakira"
REM COMPOSER ""
INDEX 00 42:26:68
INDEX 01 42:27:62
TRACK 13 AUDIO
TITLE "Te Aviso, Te Anuncio (Tango)"
PERFORMER "Shakira"
REM COMPOSER ""
INDEX 00 45:42:12
INDEX 01 45:43:65
[свернуть]

Лог проверки качества

AUDIOCHECKER v2.0 beta (build 457) - by Dester -
~~~~~~~~~~~~~~~~~~~~~~~~~~~~~~~~~~
-=== НЕ РЕДАКТИРУЙТЕ ЭТОТ ФАЙЛ! ===-

Путь: ...\2001 - Laundry Service [498720 2]

1 -=- Shakira - Laundry Service.flac -=- CDDA (100%)

51222964
[свернуть]

Спектр частот

[свернуть]

Скачать Shakira - Laundry Service



password: sergych
[свернуть]

Контрольная сумма (хеш-сумма) архива

MD5: 85d5222f96968445311028c4f61fee06
[свернуть]
My opinion of release: 10/10
__________________
TAIFUN.Wings of Soul

Вверх
3 пользователя(ей) сказали cпасибо:
Показать список поблагодаривших
Похожие темы
Тема Автор Раздел Ответов Последнее сообщение
BD Shakira: Live from Paris (Shakira: En Vivo Desde Paris) (2011) PUPOKIN Альбомы и концерты 0 09.12.2011 09:57
Релиз Shakira – Sale El Sol PUPOKIN Зарубежная Поп-Музыка 0 14.10.2010 12:56
Shakira - She Wolf PUPOKIN Видеоклипы 0 11.10.2009 14:51
Shakira - Best Of PUPOKIN Зарубежная Поп-Музыка 0 01.10.2008 09:58
Shakira TAIFUN Видеоклипы 0 22.05.2008 15:00


Метки
2001 , laundry service , pop , shakira

Опции темы

Ваши права в разделе
Вы не можете создавать новые темы
Вы не можете отвечать в темах
Вы не можете прикреплять вложения
Вы не можете редактировать свои сообщения

Быстрый переход



Текущее время: 09:48. Часовой пояс GMT +3.
Powered by vBulletin® Version 3.8.10
Copyright ©2000 - 2018, vBulletin Solutions, Inc. Перевод: zCarot
© 2008 - 2018 Taifun With Song
Яндекс.Метрика