TAIFUN With Song
Навигация
Jazz и Blues Гибкая ритмика, импровизационное начало, гармонии и мелодии - все это Jazz. Blues - жизнеутверждающая музыка, рожденная из душевной боли

А знаете ли Вы, что...
Какой музыкант однажды спел о том, что забыл слова этой песни?
«Однажды на концерте во Франции солист исландской группы Sigur Rós Йонси забыл текст песни. Не остановившись, он сымпровизировал под ту же музыку: «Чёрт, я забыл слова. Но это ничего. Потому что я во Франции, где никто не поймёт».»
 
Опции темы

  #1
Старый 17.10.2015, 16:26
sergych
Координатор
Досье
 
Аватар для sergych
Релиз Leonard Cohen - Ten New Songs


2001 - Leonard Cohen - Ten New Songs




Исполнитель/Artist: Leonard Cohen
Альбом/Album: Ten New Songs
Год/Year: 2001
Жанр/Genre: pop, ballad, blues
Страна/Country: Австрия
Рекорд-лейбл/Record label: Sony Music
Номер в каталоге/Catalogue #: 501202 2
Формат/Format: Free Lossless Audio Codec (*.flac)
Качество/Quality: Lossless
Тип рипа/RIP Type: image+.cue
Продолжительность/Length: 00:52:48
Источник/Source: Собственный рип
Размер/Size: 350.3 MB

Сканы в комплекте

Треклист

01. In My Secret Life [0:04:55.65]
02. A Thousand Kisses Deep [0:06:29.12]
03. That Don't Make It Junk [0:04:28.08]
04. Here It Is [0:04:18.70]
05. Love Itself [0:05:26.05]
06. By The Rivers Dark [0:05:20.50]
07. Alexandra Leaving [0:05:25.65]
08. You Have Loved Enough [0:05:41.52]
09. Boogie Street [0:06:04.65]
10. The Land Of Plenty [0:04:36.03]
[свернуть]

youtube.com

[свернуть]

Исполнители/Performers

Leonard Cohen
Sharon Robinson
[свернуть]

EAC лог

Exact Audio Copy V1.0 beta 3 from 29. August 2011

EAC extraction logfile from 4. October 2015, 22:29

Leonard Cohen / Ten New Songs

Used drive : ATAPI iHAS124 D Adapter: 0 ID: 2

Read mode : Secure
Utilize accurate stream : Yes
Defeat audio cache : Yes
Make use of C2 pointers : No

Read offset correction : 6
Overread into Lead-In and Lead-Out : No
Fill up missing offset samples with silence : Yes
Delete leading and trailing silent blocks : No
Null samples used in CRC calculations : Yes
Used interface : Installed external ASPI interface

Used output format : User Defined Encoder
Selected bitrate : 1024 kBit/s
Quality : High
Add ID3 tag : No
Command line compressor : C:\Program Files (x86)\Exact Audio Copy\Flac\flac.exe
Additional command line options : -6 -V -T "ARTIST=%artist%" -T "TITLE=%title%" -T "ALBUM=%albumtitle%" -T "DATE=%year%" -T "TRACKNUMBER=%tracknr%" -T "GENRE=%genre%" -T "COMMENT=%comment%" -T "BAND=%albuminterpret%" -T "COMPOSER=%composer%" %haslyrics%--tag-from-file=LYRICS="%lyricsfile%"%haslyrics% -T "DISCNUMBER=%cdnumber%" -T "TOTALDISCS=%totalcds%" -T "TOTALTRACKS=%numtracks%" %hascover%--picture="%coverfile%"%hascover% %source% -o %dest%


TOC of the extracted CD

Track | Start | Length | Start sector | End sector
---------------------------------------------------------
1 | 0:00.00 | 4:55.65 | 0 | 22189
2 | 4:55.65 | 6:29.12 | 22190 | 51376
3 | 11:25.02 | 4:28.08 | 51377 | 71484
4 | 15:53.10 | 4:18.70 | 71485 | 90904
5 | 20:12.05 | 5:26.05 | 90905 | 115359
6 | 25:38.10 | 5:20.50 | 115360 | 139409
7 | 30:58.60 | 5:25.65 | 139410 | 163849
8 | 36:24.50 | 5:41.52 | 163850 | 189476
9 | 42:06.27 | 6:04.65 | 189477 | 216841
10 | 48:11.17 | 4:36.03 | 216842 | 237544


Range status and errors

Selected range

Filename C:\mm\Leonard Cohen\2001 - Ten New Songs [501202 2]\Leonard Cohen - Ten New Songs.wav

Peak level 99.9 %
Extraction speed 8.7 X
Range quality 99.9 %
Test CRC 8641AEA9
Copy CRC 8641AEA9
Copy OK

No errors occurred


AccurateRip summary

Track 1 accurately ripped (confidence 24) [1510C12A] (AR v2)
Track 2 accurately ripped (confidence 24) [D554DDD6] (AR v2)
Track 3 accurately ripped (confidence 24) [71CFEF01] (AR v2)
Track 4 accurately ripped (confidence 24) [5C7978D1] (AR v2)
Track 5 accurately ripped (confidence 24) [FD478D6A] (AR v2)
Track 6 accurately ripped (confidence 23) [ECE26140] (AR v2)
Track 7 accurately ripped (confidence 24) [71C4C159] (AR v2)
Track 8 accurately ripped (confidence 24) [D98B19D7] (AR v2)
Track 9 accurately ripped (confidence 24) [C790D82C] (AR v2)
Track 10 accurately ripped (confidence 23) [C85CFCCD] (AR v2)

All tracks accurately ripped

End of status report
[свернуть]

Файл CUE

REM GENRE Folk-Rock
REM DATE 2001
REM DISCID 950C5F0A
REM COMMENT "ExactAudioCopy v1.0b3"
PERFORMER "Leonard Cohen"
TITLE "Ten New Songs"
FILE "Leonard Cohen - Ten New Songs.flac" WAVE
TRACK 01 AUDIO
TITLE "In My Secret Life"
PERFORMER "Leonard Cohen"
INDEX 01 00:00:00
TRACK 02 AUDIO
TITLE "A Thousand Kisses Deep"
PERFORMER "Leonard Cohen"
INDEX 00 04:53:52
INDEX 01 04:55:65
TRACK 03 AUDIO
TITLE "That Don't Make It Junk"
PERFORMER "Leonard Cohen"
INDEX 00 11:22:07
INDEX 01 11:25:02
TRACK 04 AUDIO
TITLE "Here It Is"
PERFORMER "Leonard Cohen"
INDEX 00 15:51:02
INDEX 01 15:53:10
TRACK 05 AUDIO
TITLE "Love Itself"
PERFORMER "Leonard Cohen"
INDEX 01 20:12:05
TRACK 06 AUDIO
TITLE "By The Rivers Dark"
PERFORMER "Leonard Cohen"
INDEX 00 25:35:35
INDEX 01 25:38:10
TRACK 07 AUDIO
TITLE "Alexandra Leaving"
PERFORMER "Leonard Cohen"
INDEX 00 30:56:17
INDEX 01 30:58:60
TRACK 08 AUDIO
TITLE "You Have Loved Enough"
PERFORMER "Leonard Cohen"
INDEX 00 36:21:27
INDEX 01 36:24:50
TRACK 09 AUDIO
TITLE "Boogie Street"
PERFORMER "Leonard Cohen"
INDEX 00 42:04:15
INDEX 01 42:06:27
TRACK 10 AUDIO
TITLE "The Land Of Plenty"
PERFORMER "Leonard Cohen"
INDEX 00 48:09:25
INDEX 01 48:11:17
[свернуть]

Лог проверки качества

AUDIOCHECKER v2.0 beta (build 457) - by Dester -
~~~~~~~~~~~~~~~~~~~~~~~~~~~~~~~~~~
-=== НЕ РЕДАКТИРУЙТЕ ЭТОТ ФАЙЛ! ===-

Путь: ...\2001 - Ten New Songs [501202 2]

01 -=- Leonard Cohen - Ten New Songs.flac -=- CDDA (100%)

174339156
[свернуть]

Спектр частот

[свернуть]

Скачать Leonard Cohen - Ten New Songs



password: sergych
[свернуть]
My opinion of release: 10/10

Release info RInfo

Волшебный альбом! Признаюсь, - не часто встречаются альбомы, которые я слушаю несколько дней подряд в режиме "нон стоп". Этот альбом - из таких. Более того, когда приходилось прерываться на прочие дела, - отключал музыку с сожалением, а внутри оставалось желание поскорее вернуться и нажать кнопку воспроизведения.
__________________
TAIFUN.Wings of Soul

Вверх
3 пользователя(ей) сказали cпасибо:
Показать список поблагодаривших
Похожие темы
Тема Автор Раздел Ответов Последнее сообщение
Альбом Leonard Cohen - Songs From A Room sergych Folk (народная) 0 21.07.2014 18:55
Альбом Leonard Cohen - Recent Songs henrik Pop Rock 0 05.11.2008 23:23
Альбом Leonard Cohen - Songs Of Leonard Cohen henrik Pop Rock 0 05.11.2008 23:23
Альбом Leonard Cohen - Songs From A Room henrik Pop Rock 0 05.11.2008 23:23
Альбом Leonard Cohen - Ten New Songs henrik Pop Rock 0 05.11.2008 23:23


Метки
2001 , ballad , blues , leonard cohen , pop , ten new songs

Опции темы

Ваши права в разделе
Вы не можете создавать новые темы
Вы не можете отвечать в темах
Вы не можете прикреплять вложения
Вы не можете редактировать свои сообщения

Быстрый переход



Текущее время: 05:01. Часовой пояс GMT +3.
Powered by vBulletin® Version 3.8.10
Copyright ©2000 - 2018, vBulletin Solutions, Inc. Перевод: zCarot
© 2008 - 2018 Taifun With Song
Яндекс.Метрика