TAIFUN With Song
Навигация
Вернуться   TAIFUN With Song > Music (обменник) > Rock > Pop Rock
Расширенный поиск
Pop Rock Поп-рок — жанр музыки, объединяющий элементы поп-музыки и рок-музыки. Песни характеризуются простой структурой, запоминающимися мелодиями, повторением музыкальных фраз (от попа), использованием в качестве основных инструментов электрогитар и ударных и агрессивным настроением (от рока).

А знаете ли Вы, что...
Когда и у кого отобрали ранее врученную музыкальную премию Грэмми?
«В 1987 году продюсер Boney M задумал новый проект под названием Milli Vanilli. Однако внешность основных исполнителей оказалась не соответствующей ожиданиям молодёжной аудитории, и так получилось, что лицом группы стали два танцора, всегда поющие «под фанеру». Вскоре группа обрела сверхпопулярность по всему миру, но длилось это недолго, и музыканты были разоблачены. Компания-производитель дисков стала возвращать всем желающим деньги за альбом, а у дуэта отобрали ранее врученную премию Грэмми — единственный случай в истории этой музыкальной награды.»
 
Опции темы

  #1
Старый 12.06.2015, 20:06
sergych
Координатор
Досье
 
Аватар для sergych
Релиз Shania Twain - In The Beginning 1989-1990


2001 - Shania Twain - In The Beginning 1989-1990




Исполнитель/Artist: Shania Twain
Альбом/Album: In The Beginning 1989-1990
Год/Year: 2001
Жанр/Genre: Rock, pop rock
Страна/Country: Великобритания
Рекорд-лейбл/Record label: Demon Music
Номер в каталоге/Catalogue #: MCCD 475
Формат/Format: Free Lossless Audio Codec (*.flac)
Качество/Quality: Lossless
Тип рипа/RIP Type: image+.cue
Продолжительность/Length: 00:44:37
Источник/Source: Собственный рип
Размер/Size: 363.2 MB

Сканы в комплекте

Треклист

01. Bite My Lip [0:02:41.41]
02. Send It With Love [0:03:43.34]
03. For The Love Of Him [0:03:33.15]
04. Wild And Wicked [0:03:03.72]
05. Once Over [0:03:48.26]
06. Hate To Love [0:03:59.59]
07. Half Breed [0:03:10.59]
08. Luv Eyes [0:03:39.52]
09. I Lost My Heart When I Found You [0:04:17.21]
10. The Rhythm Made To Do It [0:03:46.00]
11. Two Hearts One Love [0:03:36.30]
12. For The Love Of Him (Dance Mix) [0:05:16.41]
[свернуть]

youtube.com

[свернуть]

EAC лог

Exact Audio Copy V1.0 beta 3 from 29. August 2011

EAC extraction logfile from 31. May 2015, 19:52

Shania Twain / In The Beginning 1989-1990

Used drive : ATAPI iHAS124 D Adapter: 0 ID: 2

Read mode : Secure
Utilize accurate stream : Yes
Defeat audio cache : Yes
Make use of C2 pointers : No

Read offset correction : 6
Overread into Lead-In and Lead-Out : No
Fill up missing offset samples with silence : Yes
Delete leading and trailing silent blocks : No
Null samples used in CRC calculations : Yes
Used interface : Installed external ASPI interface

Used output format : User Defined Encoder
Selected bitrate : 1024 kBit/s
Quality : High
Add ID3 tag : No
Command line compressor : C:\Program Files (x86)\Exact Audio Copy\Flac\flac.exe
Additional command line options : -6 -V -T "ARTIST=%artist%" -T "TITLE=%title%" -T "ALBUM=%albumtitle%" -T "DATE=%year%" -T "TRACKNUMBER=%tracknr%" -T "GENRE=%genre%" -T "COMMENT=%comment%" -T "BAND=%albuminterpret%" -T "COMPOSER=%composer%" %haslyrics%--tag-from-file=LYRICS="%lyricsfile%"%haslyrics% -T "DISCNUMBER=%cdnumber%" -T "TOTALDISCS=%totalcds%" -T "TOTALTRACKS=%numtracks%" %hascover%--picture="%coverfile%"%hascover% %source% -o %dest%


TOC of the extracted CD

Track | Start | Length | Start sector | End sector
---------------------------------------------------------
1 | 0:00.00 | 2:41.41 | 0 | 12115
2 | 2:41.41 | 3:43.34 | 12116 | 28874
3 | 6:25.00 | 3:33.15 | 28875 | 44864
4 | 9:58.15 | 3:03.72 | 44865 | 58661
5 | 13:02.12 | 3:48.26 | 58662 | 75787
6 | 16:50.38 | 3:59.59 | 75788 | 93771
7 | 20:50.22 | 3:10.59 | 93772 | 108080
8 | 24:01.06 | 3:39.52 | 108081 | 124557
9 | 27:40.58 | 4:17.21 | 124558 | 143853
10 | 31:58.04 | 3:46.00 | 143854 | 160803
11 | 35:44.04 | 3:36.30 | 160804 | 177033
12 | 39:20.34 | 5:16.41 | 177034 | 200774


Range status and errors

Selected range

Filename C:\mm\Shania Twain\2001 - In The Beginning (1989-1990) [MCCD 475]\Shania Twain - In The Beginning 1989-1990.wav

Peak level 98.8 %
Extraction speed 8.5 X
Range quality 100.0 %
Test CRC 79E9F4EB
Copy CRC 79E9F4EB
Copy OK

No errors occurred


AccurateRip summary

Track 1 accurately ripped (confidence 2) [1FD780D0] (AR v2)
Track 2 accurately ripped (confidence 2) [2BDDE80F] (AR v2)
Track 3 accurately ripped (confidence 2) [03127F5E] (AR v2)
Track 4 accurately ripped (confidence 2) [D0E3B789] (AR v2)
Track 5 accurately ripped (confidence 2) [211FD89C] (AR v2)
Track 6 accurately ripped (confidence 2) [67DF0A6E] (AR v2)
Track 7 accurately ripped (confidence 2) [14BF8580] (AR v2)
Track 8 accurately ripped (confidence 2) [5ED71B11] (AR v2)
Track 9 accurately ripped (confidence 2) [C55CFDED] (AR v2)
Track 10 accurately ripped (confidence 2) [6BBD4F36] (AR v2)
Track 11 accurately ripped (confidence 2) [2D7BECD2] (AR v2)
Track 12 accurately ripped (confidence 2) [71EA16DD] (AR v2)

All tracks accurately ripped

End of status report
[свернуть]

Файл CUE

REM GENRE Country
REM DATE 2001
REM DISCID 860A750C
REM COMMENT "ExactAudioCopy v1.0b3"
PERFORMER "Shania Twain"
TITLE "In The Beginning 1989-1990"
FILE "Shania Twain - In The Beginning 1989-1990.flac" WAVE
TRACK 01 AUDIO
TITLE "Bite My Lip"
PERFORMER "Shania Twain"
INDEX 01 00:00:00
TRACK 02 AUDIO
TITLE "Send It With Love"
PERFORMER "Shania Twain"
INDEX 00 02:39:66
INDEX 01 02:41:41
TRACK 03 AUDIO
TITLE "For The Love Of Him"
PERFORMER "Shania Twain"
INDEX 00 06:23:25
INDEX 01 06:25:00
TRACK 04 AUDIO
TITLE "Wild And Wicked"
PERFORMER "Shania Twain"
INDEX 00 09:56:40
INDEX 01 09:58:15
TRACK 05 AUDIO
TITLE "Once Over"
PERFORMER "Shania Twain"
INDEX 00 13:00:37
INDEX 01 13:02:12
TRACK 06 AUDIO
TITLE "Hate To Love"
PERFORMER "Shania Twain"
INDEX 00 16:48:63
INDEX 01 16:50:38
TRACK 07 AUDIO
TITLE "Half Breed"
PERFORMER "Shania Twain"
INDEX 00 20:48:47
INDEX 01 20:50:22
TRACK 08 AUDIO
TITLE "Luv Eyes"
PERFORMER "Shania Twain"
INDEX 00 23:59:31
INDEX 01 24:01:06
TRACK 09 AUDIO
TITLE "I Lost My Heart When I Found You"
PERFORMER "Shania Twain"
INDEX 00 27:39:08
INDEX 01 27:40:58
TRACK 10 AUDIO
TITLE "The Rhythm Made To Do It"
PERFORMER "Shania Twain"
INDEX 00 31:56:29
INDEX 01 31:58:04
TRACK 11 AUDIO
TITLE "Two Hearts One Love"
PERFORMER "Shania Twain"
INDEX 00 35:42:29
INDEX 01 35:44:04
TRACK 12 AUDIO
TITLE "For The Love Of Him (Dance Mix)"
PERFORMER "Shania Twain"
INDEX 00 39:18:59
INDEX 01 39:20:34
[свернуть]

Лог проверки качества

AUDIOCHECKER v2.0 beta (build 457) - by Dester -
~~~~~~~~~~~~~~~~~~~~~~~~~~~~~~~~~~
-=== НЕ РЕДАКТИРУЙТЕ ЭТОТ ФАЙЛ! ===-

Путь: ...\2001 - In The Beginning (1989-1990) [MCCD 475]

1 -=- Shania Twain - In The Beginning 1989-1990.flac -=- CDDA (100%)

216066484
[свернуть]

Спектр частот

[свернуть]

Скачать Shania Twain - In The Beginning 1989-1990



password: sergych
[свернуть]
My opinion of release: 8/10

Release info RInfo

Вот любят издатели всех мастей "переливать из пустого в порожнее". Так и с данным релизом, - минимум 6 изданий видел, где лишь меняются местами чередование треков и обложки.
__________________
TAIFUN.Wings of Soul

Вверх
Пользователь сказал cпасибо:
Lighting1981 (29.06.2015)
Похожие темы
Тема Автор Раздел Ответов Последнее сообщение
Альбом Shania Twain - The Woman In Me sergych Country 1 23.02.2016 11:44
Альбом Shania Twain - Come On Over sergych Country 1 07.03.2015 19:35
Сборник Shania Twain - The Music Of Shania Twain sergych Country 0 04.02.2015 21:37
Альбом Shania Twain - Up! sergych Зарубежная Поп-Музыка 0 28.07.2014 15:46
Альбом Shania Twain - Shania Twain sergych Country 0 21.03.2014 18:03


Метки
2001 , in the beginning 1989-1990 , pop rock , rock , shania twain

Опции темы

Ваши права в разделе
Вы не можете создавать новые темы
Вы не можете отвечать в темах
Вы не можете прикреплять вложения
Вы не можете редактировать свои сообщения

Быстрый переход



Текущее время: 17:23. Часовой пояс GMT +3.
Powered by vBulletin® Version 3.8.10
Copyright ©2000 - 2018, vBulletin Solutions, Inc. Перевод: zCarot
© 2008 - 2018 Taifun With Song
Яндекс.Метрика