TAIFUN With Song
Навигация
Вернуться   TAIFUN With Song > Music (обменник) > Rock > Pop Rock
Расширенный поиск
Pop Rock Поп-рок — жанр музыки, объединяющий элементы поп-музыки и рок-музыки. Песни характеризуются простой структурой, запоминающимися мелодиями, повторением музыкальных фраз (от попа), использованием в качестве основных инструментов электрогитар и ударных и агрессивным настроением (от рока).

А знаете ли Вы, что...
Какие предметы лежат в склепе Боба Марли?
«Знаменитый ямайский регги-музыкант Боб Марли завещал положить в свой посмертный склеп гитару «Les Paul», футбольный мяч, Библию и свёрток марихуаны.»
 
Опции темы

  #1
Старый 28.11.2015, 16:00
sergych
Координатор
Досье
 
Аватар для sergych
Релиз Rod Stewart - Soulbook


2009 - Rod Stewart - Soulbook




Исполнитель/Artist: Rod Stewart
Альбом/Album: Soulbook
Год/Year: 2009
Жанр/Genre: Pop Rock, Pop
Страна/Country: Соединённые Штаты
Рекорд-лейбл/Record label: RCA Records / Jive Label
Номер в каталоге/Catalogue #: 88697-30256-2-RE1
Формат/Format: Free Lossless Audio Codec (*.flac)
Качество/Quality: Lossless
Тип рипа/RIP Type: image+.cue
Продолжительность/Length: 00:47:19
Источник/Source: Собственный рип
Размер/Size: 403.1 MB

Сканы в комплекте

Треклист

01. It's The Same Old Song [0:04:15.51]
02. My Cherie Amour (featuring Stevie Wonder) [0:03:10.07]
03. You Make Me Feel Brand New (Duet with Mary J. Blige) [0:04:36.24]
04. (Your Love Keeps Lifting Me) Higher And Higher [0:03:21.38]
05. Tracks Of My Tears (featuring Smokey Robinson) [0:03:36.06]
06. Let It Be Me (Duet with Jennifer Hudson) [0:03:16.60]
07. Rainy Night In Georgia [0:04:13.01]
08. What Becomes Of The Broken Hearted [0:03:19.34]
09. Love Train [0:03:03.16]
10. You've Really Got A Hold On Me [0:03:17.04]
11. Wonderful World [0:03:33.69]
12. If You Don't Know Me By Now [0:03:59.66]
13. Just My Imagination [0:03:35.69]
[свернуть]

youtube.com

[свернуть]

Исполнители/Performers

Rod Stewart – vocals
Bridget Cady, Darryl Tookes, Di Reed, Dorian Holley, Judith Hill, Lisa Vaughn, Natasha Pearce, Will Wheaton – backing vocals
Lynn Fiddmont, Pam Trotter – backing vocals on "Tracks of My Tears"
Leland Sklar – bass on "Rainy Night in Georgia"
Steve Tyrell – backing vocals on "Love Train"
Bob Babbitt, Darryl Jones, Nathan East, Reggie McBride – bass
Conrad Korsch – bass on "Love Train"
Charles Hodges – organ
Chuck Kentis – keyboards on "Love Train"
David Paich – keyboards
Michael Bearden – keyboards, Rhodes piano
Greg Phillinganes – acoustic piano, keyboards, backing vocals
Henry Hey – piano on "Rainy Night in Georgia"
Bob Mann – guitar, keyboards, mandolin
Dean Parks, Don Kirkpatrick, Michael Landau, Paul Jackson, Jr., Paul Warren, Ray Parker, Jr. – guitar
Clayton Cameron – vibes on "(Your Love Keeps Lifting Me) Higher and Higher"
Milt Chocolate – vibes on "My Cherie Amour"
Jeff Driskill – flute
George Bohanon, Jack Hale, Larry Farrell – trombone
Chuck Finley, Wayne Jackson – trumpet
Lou Marini, Tom Scott – saxophone
James Spake – tenor saxophone
John Yoakum – oboe
Lenny Castro – congas on "Tracks of My Tears"
Steve Jordan – drums, percussion, backing vocals
Ricky Lawson – drums
David Palmer – drums on "Love Train"
Russ Kunkle – drums on "Rainy Night in Georgia"
Gayle Levant – harp on "Let It Be Me"
[свернуть]

EAC лог

Exact Audio Copy V1.1 from 23. June 2015

EAC extraction logfile from 25. November 2015, 23:14

Rod Stewart / Soulbook

Used drive : ATAPI iHAS124 D Adapter: 0 ID: 2

Read mode : Secure
Utilize accurate stream : Yes
Defeat audio cache : Yes
Make use of C2 pointers : No

Read offset correction : 6
Overread into Lead-In and Lead-Out : No
Fill up missing offset samples with silence : Yes
Delete leading and trailing silent blocks : No
Null samples used in CRC calculations : Yes
Used interface : Installed external ASPI interface

Used output format : User Defined Encoder
Selected bitrate : 1024 kBit/s
Quality : High
Add ID3 tag : Yes
Command line compressor : C:\Program Files (x86)\Exact Audio Copy\Flac\flac.exe
Additional command line options : -6 -V -T "ARTIST=%artist%" -T "TITLE=%title%" -T "ALBUM=%albumtitle%" -T "DATE=%year%" -T "TRACKNUMBER=%tracknr%" -T "GENRE=%genre%" -T "COMMENT=%comment%" -T "BAND=%albuminterpret%" -T "COMPOSER=%composer%" %haslyrics%--tag-from-file=LYRICS="%lyricsfile%"%haslyrics% -T "DISCNUMBER=%cdnumber%" -T "TOTALDISCS=%totalcds%" -T "TOTALTRACKS=%numtracks%" %hascover%--picture="%coverfile%"%hascover% %source% -o %dest%


TOC of the extracted CD

Track | Start | Length | Start sector | End sector
---------------------------------------------------------
1 | 0:00.00 | 4:15.51 | 0 | 19175
2 | 4:15.51 | 3:10.07 | 19176 | 33432
3 | 7:25.58 | 4:36.24 | 33433 | 54156
4 | 12:02.07 | 3:21.38 | 54157 | 69269
5 | 15:23.45 | 3:36.06 | 69270 | 85475
6 | 18:59.51 | 3:16.60 | 85476 | 100235
7 | 22:16.36 | 4:13.01 | 100236 | 119211
8 | 26:29.37 | 3:19.34 | 119212 | 134170
9 | 29:48.71 | 3:03.16 | 134171 | 147911
10 | 32:52.12 | 3:17.04 | 147912 | 162690
11 | 36:09.16 | 3:33.69 | 162691 | 178734
12 | 39:43.10 | 3:59.66 | 178735 | 196725
13 | 43:43.01 | 3:35.69 | 196726 | 212919


Range status and errors

Selected range

Filename C:\mm\Rod Stewart\2009 - Soulbook [88697-30256-2-RE1]\Rod Stewart - Soulbook.wav

Peak level 99.8 %
Extraction speed 9.0 X
Range quality 99.9 %
Test CRC 7F74548C
Copy CRC 7F74548C
Copy OK

No errors occurred


AccurateRip summary

Track 1 accurately ripped (confidence 71) [FF7B32BF] (AR v2)
Track 2 accurately ripped (confidence 71) [8D894853] (AR v2)
Track 3 accurately ripped (confidence 70) [2F32DDAC] (AR v2)
Track 4 accurately ripped (confidence 71) [4559CE22] (AR v2)
Track 5 accurately ripped (confidence 71) [23D28176] (AR v2)
Track 6 accurately ripped (confidence 69) [B832D14E] (AR v2)
Track 7 accurately ripped (confidence 70) [B0A72D05] (AR v2)
Track 8 accurately ripped (confidence 70) [70F57B60] (AR v2)
Track 9 accurately ripped (confidence 70) [292A0CF9] (AR v2)
Track 10 accurately ripped (confidence 70) [4EAFE79C] (AR v2)
Track 11 accurately ripped (confidence 70) [7B4D721E] (AR v2)
Track 12 accurately ripped (confidence 70) [B20853FC] (AR v2)
Track 13 accurately ripped (confidence 69) [DBEDC106] (AR v2)

All tracks accurately ripped

End of status report
[свернуть]

Файл CUE

REM GENRE Pop
REM DATE 2009
REM DISCID B40B160D
REM COMMENT "ExactAudioCopy v1.1"
PERFORMER "Rod Stewart"
TITLE "Soulbook"
FILE "Rod Stewart - Soulbook.flac" WAVE
TRACK 01 AUDIO
TITLE "It's The Same Old Song"
PERFORMER "Rod Stewart"
INDEX 01 00:00:00
TRACK 02 AUDIO
TITLE "My Cherie Amour (featuring Stevie Wonder)"
PERFORMER "Rod Stewart"
INDEX 01 04:15:51
TRACK 03 AUDIO
TITLE "You Make Me Feel Brand New (Duet with Mary J. Blige)"
PERFORMER "Rod Stewart"
INDEX 01 07:25:58
TRACK 04 AUDIO
TITLE "(Your Love Keeps Lifting Me) Higher And Higher"
PERFORMER "Rod Stewart"
INDEX 01 12:02:07
TRACK 05 AUDIO
TITLE "Tracks Of My Tears (featuring Smokey Robinson)"
PERFORMER "Rod Stewart"
INDEX 01 15:23:45
TRACK 06 AUDIO
TITLE "Let It Be Me (Duet with Jennifer Hudson)"
PERFORMER "Rod Stewart"
INDEX 01 18:59:51
TRACK 07 AUDIO
TITLE "Rainy Night In Georgia"
PERFORMER "Rod Stewart"
INDEX 01 22:16:36
TRACK 08 AUDIO
TITLE "What Becomes Of The Broken Hearted"
PERFORMER "Rod Stewart"
INDEX 01 26:29:37
TRACK 09 AUDIO
TITLE "Love Train"
PERFORMER "Rod Stewart"
INDEX 01 29:48:71
TRACK 10 AUDIO
TITLE "You've Really Got A Hold On Me"
PERFORMER "Rod Stewart"
INDEX 01 32:52:12
TRACK 11 AUDIO
TITLE "Wonderful World"
PERFORMER "Rod Stewart"
INDEX 01 36:09:16
TRACK 12 AUDIO
TITLE "If You Don't Know Me By Now"
PERFORMER "Rod Stewart"
INDEX 01 39:43:10
TRACK 13 AUDIO
TITLE "Just My Imagination"
PERFORMER "Rod Stewart"
INDEX 01 43:43:01
[свернуть]

Лог проверки качества

AUDIOCHECKER v2.0 beta (build 457) - by Dester -
~~~~~~~~~~~~~~~~~~~~~~~~~~~~~~~~~~
-=== НЕ РЕДАКТИРУЙТЕ ЭТОТ ФАЙЛ! ===-

Путь: ...\2009 - Soulbook [88697-30256-2-RE1]

1 -=- Rod Stewart - Soulbook.flac -=- CDDA (100%)

250141348
[свернуть]

Спектр частот

[свернуть]

Скачать Rod Stewart - Soulbook



passwprd: sergych
[свернуть]
My opinion of release: 10/10
__________________
TAIFUN.Wings of Soul

Вверх
3 пользователя(ей) сказали cпасибо:
Показать список поблагодаривших
Похожие темы
Тема Автор Раздел Ответов Последнее сообщение
Альбом Rod Stewart - Time aheron Pop Rock 1 09.07.2018 10:36
Сборник Rod Stewart - Tonight's The Night sergych Pop Rock 0 11.01.2015 21:04
Релиз Ian James Stewart - Junk DNA PUPOKIN Rock 0 05.12.2013 09:07
Сборник Rod Stewart - Colour Collection sergych Pop Rock 0 23.11.2013 16:25
Релиз Grant Stewart - Around The Corner PUPOKIN Jazz и Blues 0 08.01.2011 09:55


Метки
2009 , pop , pop rock , rod stewart , soulbook

Опции темы

Ваши права в разделе
Вы не можете создавать новые темы
Вы не можете отвечать в темах
Вы не можете прикреплять вложения
Вы не можете редактировать свои сообщения

Быстрый переход



Текущее время: 08:03. Часовой пояс GMT +3.
Powered by vBulletin® Version 3.8.10
Copyright ©2000 - 2018, vBulletin Solutions, Inc. Перевод: zCarot
© 2008 - 2018 Taifun With Song
Яндекс.Метрика