TAIFUN With Song - качественная и редкая музыка
Навигация
Hard Rock То, что может восприниматься слушателем как «тяжесть» в хард-роке, достигается, в частности, за счет специфического звучания электрогитары (с такими эффектами, как например, дисторшн и овердрайв) и работы ритм-секции. «Классический» хард-рок обрёл формы в конце 1960-х — начале 1970-х годов в Великобритании. Классический хард-рок отличается от хеви-металла более мелодичным звучанием.

А знаете ли Вы, что...
Какой пианист играл одной левой?
«Австрийский пианист Пауль Витгенштейн потерял правую руку в Первой Мировой войне, однако возобновил концертную карьеру и достиг исключительного мастерства, играя одной левой. Виртуозное владение пианистической техникой позволило Витгенштейну успешно исполнять сочинения, сопоставимые по сложности даже для пианиста с двумя руками.»
 
Опции темы

  #1
Старый 27.04.2013, 05:23
igoryok63
Меломан
Досье
 
Аватар для igoryok63
По умолчанию Frank Marino & Mahogany Rush - Mahogany Rush IV


1976 - Frank Marino & Mahogany Rush - Mahogany Rush IV (1976)



Краткое знакомство с альбомом:



Исполнитель/Artist: Frank Marino & Mahogany Rush
Альбом/Album: Mahogany Rush IV
Год/Year: 1976
Жанр/Genre: AOR Classic Rock
Рекорд-лейбл/Record label: COE Records
Формат/Format: flac (image, cue, log) / mp3
Качество/Quality: Lossless / 320kbps
Продолжительность/Length: 00:43:45
Размер/Size: 346,85 / 108,57 MB


Треклист

01. I'm Going Away - 4:06
02. Man At The Back Door - 3:42
03. The Answer - 4:33
04. Jive Baby - 3:24
05. It's Begun To Rain - 6:25
06. Dragonfly - 5:07
07. Little Sexy Annie - 3:23
08. Moonwalk - 5:48
09. IV... (The Emperor) - 7:17
[свернуть]

EAC лог

Exact Audio Copy V1.0 beta 3 from 29. August 2011

Отчёт EAC об извлечении, выполненном 19. марта 2013, 6:05

Mahogany Rush / Mahogany Rush IV

Дисковод: HL-DT-STDVDRAM GSA-H44N Adapter: 0 ID: 0

Режим чтения : Достоверность
Использование точного потока : Да
Отключение кэша аудио : Да
Использование указателей C2 : Нет

Коррекция смещения при чтении : 667
Способность читать области Lead-in и Lead-out : Нет
Заполнение пропущенных сэмплов тишиной : Да
Удаление блоков с тишиной в начале и конце : Нет
При вычислениях CRC использовались нулевые сэмплы : Да
Интерфейс : Установленный внешний ASPI-интерфейс

Выходной формат : Пользовательский кодировщик
Выбранный битрейт : 1024 kBit/s
Качество : Высокий
Добавление ID3-тега : Нет
Утилита сжатия : C:\Program Files\FLAC\flac.exe
Дополнительные параметры : -6 -V -T "ARTIST=%artist%" -T "TITLE=%title%" -T "ALBUM=%albumtitle%" -T "DATE=%year%" -T "TRACKNUMBER=%tracknr%" -T "GENRE=%genre%" -T "COMMENT=%comment%" %hascover%--picture="%coverfile%"%hascover% %source% -o %dest%


TOC извлечённого CD

Трек | Старт | Длительность | Начальный сектор | Конечный сектор
---------------------------------------------------------------------
1 | 0:00.00 | 4:08.61 | 0 | 18660
2 | 4:08.61 | 3:44.74 | 18661 | 35534
3 | 7:53.60 | 4:35.52 | 35535 | 56211
4 | 12:29.37 | 3:26.25 | 56212 | 71686
5 | 15:55.62 | 6:28.00 | 71687 | 100786
6 | 22:23.62 | 5:09.35 | 100787 | 123996
7 | 27:33.22 | 3:25.51 | 123997 | 139422
8 | 30:58.73 | 5:50.03 | 139423 | 165675
9 | 36:49.01 | 7:17.54 | 165676 | 198504


Характеристики диапазона извлечения и сообщения об ошибках

Выбранный диапазон

Имя файла F:\Frank Marino\Flac\Frank Marino & Mahogany Rush - Mahogany Rush IV (1976)\Mahogany Rush - Mahogany Rush IV.wav

Пиковый уровень 100.0 %
Скорость извлечения 6.5 X
Качество диапазона 99.9 %
CRC копии 05DFAAE8
Копирование... OK

Ошибок не произошло


AccurateRip: сводка

Трек 1 отсутствует в базе данных
Трек 2 отсутствует в базе данных
Трек 3 отсутствует в базе данных
Трек 4 отсутствует в базе данных
Трек 5 отсутствует в базе данных
Трек 6 отсутствует в базе данных
Трек 7 отсутствует в базе данных
Трек 8 отсутствует в базе данных
Трек 9 отсутствует в базе данных

Ни одного трека нет в базе AccurateRip

Конец отчёта
[свернуть]

Лог проверки качества

AUDIOCHECKER v2.0 beta (build 457) - by Dester - [Ссылки могут видеть только зарегистрированные и активированные пользователи.]
[Only registered and activated users can see links.]
~~~~~~~~~~~~~~~~~~~~~~~~~~~~~~~~~~
-=== НЕ РЕДАКТИРУЙТЕ ЭТОТ ФАЙЛ! ===-

Путь: ...\Frank Marino & Mahogany Rush - Mahogany Rush IV (1976)

1 -=- Mahogany Rush - Mahogany Rush IV.flac -=- CDDA (100%)

21063780
[свернуть]

Скачать Frank Marino & Mahogany Rush - Mahogany Rush IV (1976)

Flac
[Ссылки могут видеть только зарегистрированные и активированные пользователи.]
[Only registered and activated users can see links.]
[Ссылки могут видеть только зарегистрированные и активированные пользователи.]
[Only registered and activated users can see links.]
[Ссылки могут видеть только зарегистрированные и активированные пользователи.]
[Only registered and activated users can see links.]

MP3
[Ссылки могут видеть только зарегистрированные и активированные пользователи.]
[Only registered and activated users can see links.]
[Ссылки могут видеть только зарегистрированные и активированные пользователи.]
[Only registered and activated users can see links.]
[Ссылки могут видеть только зарегистрированные и активированные пользователи.]
[Only registered and activated users can see links.]
[свернуть]
My opinion of release: 10/10

Вверх
Похожие темы
Тема Автор Раздел Ответов Последнее сообщение
Релиз Frank Marino & Mahogany Rush - Trenton, New Jersey igoryok63 Hard Rock 0 27.04.2013 05:45
Релиз Frank Marino & Mahogany Rush - World Anthem igoryok63 Hard Rock 0 27.04.2013 05:33
Биография Mahogany Rush Stanislav1989 Rock [FAQ] 0 17.02.2011 13:15
Альбом Frank Marino & Mahogany Rush — From The Hip PUPOKIN Hard Rock 0 21.05.2010 09:55
Альбом Mahogany Rush — Child Of The Novelty PUPOKIN Hard Rock 0 07.05.2010 10:00


Метки
1976 , aor classic rock , frank marino & mahogany rush , mahogany rush iv

Опции темы

Ваши права в разделе
Вы не можете создавать новые темы
Вы не можете отвечать в темах
Вы не можете прикреплять вложения
Вы не можете редактировать свои сообщения

Быстрый переход




Текущее время: 22:50. Часовой пояс GMT +3.
Powered by vBulletin® Version 3.8.10
Copyright ©2000 - 2019, vBulletin Solutions, Inc. Перевод: zCarot
© 2008 - 2019 Taifun With Song
Яндекс.Метрика