TAIFUN With Song
Навигация
Вернуться   TAIFUN With Song > Music (обменник) > Chill Out > Chillout
Расширенный поиск
Chillout Chillout (чилл-аут) — стиль электронной музыки, название пошло от сленгового слова, означающего «расслабление». Зародился стиль в начале 90-х, тогдашний chillout был относительно выдержанным и медленным. В это время было выпущено несколько основополагающих альбомов с приставкой «Chill Out» в названии. Эти альбомы были тесно связаны также со стилями даун-темпо, трип-хоп, медленными вариантами хаус-музыки, ню-джаза, псибиента и лаунжа. На этот музыкальный стиль также повлияли транс, эмбиент и стиль творческой танцевальной музыки (IDM). Термин «chillout» в основном используется для описания расслабляющей музыки. К chillout неверно относить различного рода гипнотические ритмы, это скорее «софт-техно».

А знаете ли Вы, что...
Какой русский музыкальный инструмент мы называем цыганским?
«Семиструнную гитару во всём мире называют русской гитарой, а у нас также распространено название цыганская гитара.»
 
Опции темы

  #1
Старый 08.11.2015, 01:31
sergych
Координатор
Досье
 
Аватар для sergych
Релиз Genesis - Los Exitos De Genesis En Bossa Nova by Holly Wilson


2007 - Genesis - Los Exitos De Genesis En Bossa Nova by Holly Wilson




Исполнитель/Artist: Holly Wilson
Альбом/Album: Los Exitos De Genesis En Bossa Nova
Год/Year: 2007
Жанр/Genre: Bossa nova, Chillout
Страна/Country: Аргентина
Рекорд-лейбл/Record label: Barca
Номер в каталоге/Catalogue #: SLC 661
Формат/Format: Free Lossless Audio Codec (*.flac)
Качество/Quality: Lossless
Тип рипа/RIP Type: image+.cue
Продолжительность/Length: 00:46:28
Источник/Source: Собственный рип
Размер/Size: 320.4 MB

Сканы в комплекте

Треклист

01. I Can't Dance [0:05:54.35]
02. Hold On My Heart [0:05:06.08]
03. Home By The Sea [0:04:58.33]
04. Jesus He Knows Me [0:05:16.74]
05. That's All [0:04:00.33]
06. Many Too Many [0:03:39.17]
07. In Too Deep [0:05:01.47]
08. Follow You, Follow Me [0:03:21.10]
09. A Trick Of The Tail [0:04:45.62]
10. Invisible Touch [0:04:23.56]
[свернуть]

EAC лог

Exact Audio Copy V1.1 from 23. June 2015

EAC extraction logfile from 7. November 2015, 23:48

Holly Wilson / Los Exitos De Genesis En Bossa Nova

Used drive : ATAPI iHAS124 D Adapter: 0 ID: 2

Read mode : Secure
Utilize accurate stream : Yes
Defeat audio cache : Yes
Make use of C2 pointers : No

Read offset correction : 6
Overread into Lead-In and Lead-Out : No
Fill up missing offset samples with silence : Yes
Delete leading and trailing silent blocks : No
Null samples used in CRC calculations : Yes
Used interface : Installed external ASPI interface

Used output format : User Defined Encoder
Selected bitrate : 1024 kBit/s
Quality : High
Add ID3 tag : Yes
Command line compressor : C:\Program Files (x86)\Exact Audio Copy\Flac\flac.exe
Additional command line options : -6 -V -T "ARTIST=%artist%" -T "TITLE=%title%" -T "ALBUM=%albumtitle%" -T "DATE=%year%" -T "TRACKNUMBER=%tracknr%" -T "GENRE=%genre%" -T "COMMENT=%comment%" -T "BAND=%albuminterpret%" -T "COMPOSER=%composer%" %haslyrics%--tag-from-file=LYRICS="%lyricsfile%"%haslyrics% -T "DISCNUMBER=%cdnumber%" -T "TOTALDISCS=%totalcds%" -T "TOTALTRACKS=%numtracks%" %hascover%--picture="%coverfile%"%hascover% %source% -o %dest%


TOC of the extracted CD

Track | Start | Length | Start sector | End sector
---------------------------------------------------------
1 | 0:00.00 | 5:54.35 | 0 | 26584
2 | 5:54.35 | 5:06.08 | 26585 | 49542
3 | 11:00.43 | 4:58.33 | 49543 | 71925
4 | 15:59.01 | 5:16.74 | 71926 | 95699
5 | 21:16.00 | 4:00.33 | 95700 | 113732
6 | 25:16.33 | 3:39.17 | 113733 | 130174
7 | 28:55.50 | 5:01.47 | 130175 | 152796
8 | 33:57.22 | 3:21.10 | 152797 | 167881
9 | 37:18.32 | 4:45.62 | 167882 | 189318
10 | 42:04.19 | 4:23.56 | 189319 | 209099


Range status and errors

Selected range

Filename C:\mm\Genesis\VA\2007 - Los Exitos De Genesis En Bossa Nova {by Holly Wilson} [SLC 661]\Holly Wilson - Los Exitos De Genesis En Bossa Nova.wav

Peak level 100.0 %
Extraction speed 9.1 X
Range quality 100.0 %
Test CRC 730993B1
Copy CRC 730993B1
Copy OK

No errors occurred


AccurateRip summary

Track 1 not present in database
Track 2 not present in database
Track 3 not present in database
Track 4 not present in database
Track 5 not present in database
Track 6 not present in database
Track 7 not present in database
Track 8 not present in database
Track 9 not present in database
Track 10 not present in database

None of the tracks are present in the AccurateRip database

End of status report
[свернуть]

Файл CUE

REM GENRE "bossa nova"
REM DATE 2007
REM DISCID 860AE40A
REM COMMENT "ExactAudioCopy v1.1"
PERFORMER "Holly Wilson"
TITLE "Los Exitos De Genesis En Bossa Nova"
FILE "Holly Wilson - Los Exitos De Genesis En Bossa Nova.flac" WAVE
TRACK 01 AUDIO
TITLE "I Can't Dance"
PERFORMER "Holly Wilson"
INDEX 01 00:00:00
TRACK 02 AUDIO
TITLE "Hold On My Heart"
PERFORMER "Holly Wilson"
INDEX 01 05:54:35
TRACK 03 AUDIO
TITLE "Home By The Sea"
PERFORMER "Holly Wilson"
INDEX 01 11:00:43
TRACK 04 AUDIO
TITLE "Jesus He Knows Me"
PERFORMER "Holly Wilson"
INDEX 01 15:59:01
TRACK 05 AUDIO
TITLE "That's All"
PERFORMER "Holly Wilson"
INDEX 01 21:16:00
TRACK 06 AUDIO
TITLE "Many Too Many"
PERFORMER "Holly Wilson"
INDEX 01 25:16:33
TRACK 07 AUDIO
TITLE "In Too Deep"
PERFORMER "Holly Wilson"
INDEX 01 28:55:50
TRACK 08 AUDIO
TITLE "Follow You, Follow Me"
PERFORMER "Holly Wilson"
INDEX 01 33:57:22
TRACK 09 AUDIO
TITLE "A Trick Of The Tail"
PERFORMER "Holly Wilson"
INDEX 01 37:18:32
TRACK 10 AUDIO
TITLE "Invisible Touch"
PERFORMER "Holly Wilson"
INDEX 01 42:04:19
[свернуть]

Лог проверки качества

AUDIOCHECKER v2.0 beta (build 457) - by Dester - [Ссылки могут видеть только зарегистрированные и активированные пользователи.]
[Only registered and activated users can see links.]
~~~~~~~~~~~~~~~~~~~~~~~~~~~~~~~~~~
-=== НЕ РЕДАКТИРУЙТЕ ЭТОТ ФАЙЛ! ===-

Путь: ...\2007 - Los Exitos De Genesis En Bossa Nova {by Holly Wilson} [SLC 661]

1 -=- Holly Wilson - Los Exitos De Genesis En Bossa Nova.flac -=- CDDA (100%)

124151028
[свернуть]

Спектр частот

[свернуть]

Скачать Genesis - Los Exitos De Genesis En Bossa Nova by Holly Wilson

[Ссылки могут видеть только зарегистрированные и активированные пользователи.]
[Only registered and activated users can see links.]

password: sergych
[свернуть]
My opinion of release: 10/10
__________________
TAIFUN.Wings of Soul

Вверх
Пользователь сказал cпасибо:
TAIFUN (08.11.2015)
Похожие темы
Тема Автор Раздел Ответов Последнее сообщение
Альбом ABBA - En Bossa Nova by Holly Wilson sergych Chillout 6 01.04.2018 08:56
Альбом Genesis - Abacab sergych Progressive Rock 0 08.02.2015 11:12
Альбом Genesis - Duke sergych Progressive Rock 0 22.11.2014 18:05
Релиз SeecreeS - Genesis PUPOKIN Death Metal 0 09.06.2011 09:37
Альбом Pink Floyd - En Bossa Nova by Holly Wilson PUPOKIN Downtempo 0 02.01.2009 12:23


Метки
2007 , bossa nova , chillout , holly wilson , los exitos de genesis en bossa nova

Опции темы

Ваши права в разделе
Вы не можете создавать новые темы
Вы не можете отвечать в темах
Вы не можете прикреплять вложения
Вы не можете редактировать свои сообщения

Быстрый переход



Текущее время: 23:34. Часовой пояс GMT +3.
Powered by vBulletin® Version 3.8.10
Copyright ©2000 - 2018, vBulletin Solutions, Inc. Перевод: zCarot
© 2008 - 2018 Taifun With Song
Яндекс.Метрика