TAIFUN With Song
Вернуться   TAIFUN With Song > Music (обменник) > POP > Зарубежная Поп-Музыка
Расширенный поиск
А знаете ли Вы, что...
Как появился псевдоним украинской певицы Ани Лорак?
«Украинская певица Каролина Куек стала известна под псевдонимом Ани Лорак благодаря конкурсу «Утренняя звезда-95». Дело в том, что там уже была заявлена другая российская певица под именем Каролина, поэтому украинке пришлось выйти из положения, написав своё имя наоборот.»
 
Опции темы

  #1
Старый 20.09.2017, 19:44
sergych
Координатор
Досье
 
Аватар для sergych
Релиз Natasha Bedingfield - Pocketful Of Sunshine


2008 - Natasha Bedingfield - Pocketful Of Sunshine




Исполнитель/Artist: Natasha Bedingfield
Альбом/Album: Pocketful Of Sunshine
Год/Year: 2008
Жанр/Genre: Pop, hip hop, soul, R&B
Страна/Country: Япония
Рекорд-лейбл/Record label: BMG
Номер в каталоге/Catalogue #: BVCP-21607
Формат/Format: Free Lossless Audio Codec (*.flac)
Качество/Quality: Lossless
Тип рипа/RIP Type: image+.cue
Продолжительность/Length: 00:51:51
Источник/Source: Собственный рип
Размер/Size: 548.4 MB

Сканы в комплекте

Треклист

01. Put Your Arms Around Me [0:03:43.11]
02. Pocketful Of Sunshine [0:03:22.72]
03. Happy [0:03:40.30]
04. Love Like This Featuring Sean Kingston [0:03:42.23]
05. Piece Of Your Heart [0:03:46.58]
06. Soulmate [0:03:33.65]
07. Say It Again [0:03:31.41]
08. Angel [0:04:08.23]
09. Backyard [0:03:27.33]
10. Freckles [0:03:46.28]
11. Who Knows? [0:03:46.54]
12. Pirate Bones [0:03:51.60]
13. Not Givin' Up [0:03:48.47]

Bonus track:
14. Stepping Stone (Bonus) [0:03:40.29]
[свернуть]

youtube.com

[свернуть]

Исполнители/Performers

Natasha Bedingfield — lead vocals, multi-instrumentalism
Danielle Brisebois, Meleni Smith, Ravaughn Brown, Richard Love, Steve Kipner — backing vocals
Mike Elizondo — guitar, bass guitar, programming, keyboards
Andrew Frampton — backing vocals, keyboards, programming
Richard Altenbach — orchestra conductor, arranger, strings
Toby Gad — producer, writer, instrumentation, programming, arranger, mixing
J.R. Rotem — instrumentation, arranger
Greg Kurstin — instrumentation, engineering
Jack Rothschild — drums, programming, engineering
John Shanks — guitar, bass guitar, keyboards, backing vocals
Wayne Wilkins — keyboards, backing vocals, drum programming, keyboard programming
Robbie Campesinos — vocal arrangements, backing vocals, guitar arrangements
Trevor Lawrence — drums, cymbals
Charles Judge — keyboards
Nick Lashley, Wendy Melvoin — guitar
Michael Valerio, Kate Bird — bass guitar
Julie Gigante, Mark Robertson, Natalie Leggett, Neel Hammond – violin
Keith Greene — viola
Sebastian Toettcher, Victor Lawrence — cello
[свернуть]

EAC лог

Exact Audio Copy V1.3 from 2. September 2016

EAC extraction logfile from 18. September 2017, 2:40

Natasha Bedingfield / Pocketful Of Sunshine

Used drive : ATAPI iHAS124 D Adapter: 0 ID: 2

Read mode : Secure
Utilize accurate stream : Yes
Defeat audio cache : Yes
Make use of C2 pointers : No

Read offset correction : 6
Overread into Lead-In and Lead-Out : No
Fill up missing offset samples with silence : Yes
Delete leading and trailing silent blocks : No
Null samples used in CRC calculations : Yes
Used interface : Installed external ASPI interface

Used output format : User Defined Encoder
Selected bitrate : 1024 kBit/s
Quality : High
Add ID3 tag : No
Command line compressor : C:\Program Files (x86)\Exact Audio Copy\Flac\flac.exe
Additional command line options : -6 -V -T "ARTIST=%artist%" -T "TITLE=%title%" -T "ALBUM=%albumtitle%" -T "DATE=%year%" -T "TRACKNUMBER=%tracknr%" -T "GENRE=%genre%" -T "COMMENT=%comment%" -T "BAND=%albuminterpret%" -T "ALBUMARTIST=%albuminterpret%" -T "COMPOSER=%composer%" %haslyrics%--tag-from-file=LYRICS="%lyricsfile%"%haslyrics% -T "DISCNUMBER=%cdnumber%" -T "TOTALDISCS=%totalcds%" -T "TOTALTRACKS=%numtracks%" %hascover%--picture="%coverfile%"%hascover% %source% -o %dest%


TOC of the extracted CD

Track | Start | Length | Start sector | End sector
---------------------------------------------------------
1 | 0:00.00 | 3:43.11 | 0 | 16735
2 | 3:43.11 | 3:22.72 | 16736 | 31957
3 | 7:06.08 | 3:40.30 | 31958 | 48487
4 | 10:46.38 | 3:42.23 | 48488 | 65160
5 | 14:28.61 | 3:46.58 | 65161 | 82168
6 | 18:15.44 | 3:33.65 | 82169 | 98208
7 | 21:49.34 | 3:31.41 | 98209 | 114074
8 | 25:21.00 | 4:08.23 | 114075 | 132697
9 | 29:29.23 | 3:27.33 | 132698 | 148255
10 | 32:56.56 | 3:46.28 | 148256 | 165233
11 | 36:43.09 | 3:46.54 | 165234 | 182237
12 | 40:29.63 | 3:51.60 | 182238 | 199622
13 | 44:21.48 | 3:48.47 | 199623 | 216769
14 | 48:10.20 | 3:40.29 | 216770 | 233298
15 | 54:22.49 | 6:28.40 | 244699 | 273838


Range status and errors

Selected range

Filename C:\mm\Natasha Bedingfield\2008 - Pocketful Of Sunshine [BVCP-21607 (88697-30192-2)]\Natasha Bedingfield - Pocketful Of Sunshine.wav

Peak level 100.0 %
Extraction speed 9.3 X
Range quality 100.0 %
Test CRC 7870FE62
Copy CRC 7870FE62
Copy OK

No errors occurred


AccurateRip summary

Track 1 accurately ripped (confidence 3) [A596FDBC] (AR v2)
Track 2 accurately ripped (confidence 3) [79BE20A6] (AR v2)
Track 3 accurately ripped (confidence 3) [468DBFB2] (AR v2)
Track 4 accurately ripped (confidence 3) [12217F50] (AR v2)
Track 5 accurately ripped (confidence 3) [1DDF3501] (AR v2)
Track 6 accurately ripped (confidence 3) [B00A2E2E] (AR v2)
Track 7 accurately ripped (confidence 3) [CEFA3ECD] (AR v2)
Track 8 accurately ripped (confidence 3) [E7ED5FED] (AR v2)
Track 9 accurately ripped (confidence 3) [103DAE7D] (AR v2)
Track 10 accurately ripped (confidence 2) [D860F195] (AR v2)
Track 11 accurately ripped (confidence 3) [957731D3] (AR v2)
Track 12 accurately ripped (confidence 3) [663E2022] (AR v2)
Track 13 accurately ripped (confidence 3) [D47AAD9C] (AR v2)
Track 14 accurately ripped (confidence 3) [200F19B0] (AR v2)

All tracks accurately ripped

End of status report

---- CUETools DB Plugin V2.1.6

[CTDB TOCID: Z3YOI0W7Qtti_G8TPSVLrc2Dsbc-] found
Submit result: Z3YOI0W7Qtti_G8TPSVLrc2Dsbc- has been confirmed
Track | CTDB Status
1 | (2/2) Accurately ripped
2 | (2/2) Accurately ripped
3 | (2/2) Accurately ripped
4 | (2/2) Accurately ripped
5 | (2/2) Accurately ripped
6 | (2/2) Accurately ripped
7 | (2/2) Accurately ripped
8 | (2/2) Accurately ripped
9 | (2/2) Accurately ripped
10 | (2/2) Accurately ripped
11 | (2/2) Accurately ripped
12 | (2/2) Accurately ripped
13 | (2/2) Accurately ripped
14 | (2/2) Accurately ripped
[свернуть]

Файл CUE

REM GENRE Pop
REM DATE 2008
REM DISCID CD0E430F
REM COMMENT "ExactAudioCopy v1.3"
PERFORMER "Natasha Bedingfield"
TITLE "Pocketful Of Sunshine"
REM COMPOSER ""
FILE "Natasha Bedingfield - Pocketful Of Sunshine.flac" WAVE
TRACK 01 AUDIO
TITLE "Put Your Arms Around Me"
PERFORMER "Natasha Bedingfield"
REM COMPOSER ""
INDEX 01 00:00:00
TRACK 02 AUDIO
TITLE "Pocketful Of Sunshine"
PERFORMER "Natasha Bedingfield"
REM COMPOSER ""
INDEX 01 03:43:11
TRACK 03 AUDIO
TITLE "Happy"
PERFORMER "Natasha Bedingfield"
REM COMPOSER ""
INDEX 01 07:06:08
TRACK 04 AUDIO
TITLE "Love Like This Featuring Sean Kingston"
PERFORMER "Natasha Bedingfield"
REM COMPOSER ""
INDEX 01 10:46:38
TRACK 05 AUDIO
TITLE "Piece Of Your Heart"
PERFORMER "Natasha Bedingfield"
REM COMPOSER ""
INDEX 01 14:28:61
TRACK 06 AUDIO
TITLE "Soulmate"
PERFORMER "Natasha Bedingfield"
REM COMPOSER ""
INDEX 01 18:15:44
TRACK 07 AUDIO
TITLE "Say It Again"
PERFORMER "Natasha Bedingfield"
REM COMPOSER ""
INDEX 01 21:49:34
TRACK 08 AUDIO
TITLE "Angel"
PERFORMER "Natasha Bedingfield"
REM COMPOSER ""
INDEX 01 25:21:00
TRACK 09 AUDIO
TITLE "Backyard"
PERFORMER "Natasha Bedingfield"
REM COMPOSER ""
INDEX 01 29:29:23
TRACK 10 AUDIO
TITLE "Freckles"
PERFORMER "Natasha Bedingfield"
REM COMPOSER ""
INDEX 01 32:56:56
TRACK 11 AUDIO
TITLE "Who Knows?"
PERFORMER "Natasha Bedingfield"
REM COMPOSER ""
INDEX 01 36:43:09
TRACK 12 AUDIO
TITLE "Pirate Bones"
PERFORMER "Natasha Bedingfield"
REM COMPOSER ""
INDEX 01 40:29:63
TRACK 13 AUDIO
TITLE "Not Givin' Up"
PERFORMER "Natasha Bedingfield"
REM COMPOSER ""
INDEX 01 44:21:48
TRACK 14 AUDIO
TITLE "Stepping Stone (Bonus)"
PERFORMER "Natasha Bedingfield"
REM COMPOSER ""
INDEX 01 48:10:20
[свернуть]

Лог проверки качества

AUDIOCHECKER v2.0 beta (build 457) - by Dester -
~~~~~~~~~~~~~~~~~~~~~~~~~~~~~~~~~~
-=== НЕ РЕДАКТИРУЙТЕ ЭТОТ ФАЙЛ! ===-

Путь: ...\2008 - Pocketful Of Sunshine [BVCP-21607 (88697-30192-2)]

1 -=- Natasha Bedingfield - Pocketful Of Sunshine.flac -=- MPEG (95%)

124667796
[свернуть]

Спектр частот

[свернуть]

Скачать Natasha Bedingfield - Pocketful Of Sunshine



password: sergych
[свернуть]

Контрольная сумма (хеш-сумма) архива

MD5: 10707bf45c02fc6675f1ba50941e8ebb
[свернуть]
My opinion of release: 9/10
__________________
TAIFUN.Wings of Soul

Вверх
4 пользователя(ей) сказали cпасибо:
Показать список поблагодаривших
  #2
Старый 21.09.2017, 20:27
swint68
Меломан
Досье
 
Аватар для swint68
По умолчанию Re: Natasha Bedingfield - Pocketful Of Sunshine

Natasha Bedingfield - новобранец британской альтернативной поп-музыки, номинант премии "Грэмми". Этот альбом критика назвала "современной поп-музыкой для нового тысячелетия".

Очередное спасибо за уникальное издание!

Вверх
2 пользователя(ей) сказали cпасибо:
sergych (23.09.2017), TAIFUN (29.09.2017)
  #3
Старый 29.09.2017, 18:54
TAIFUN
Admin
Досье
 
Аватар для TAIFUN
По умолчанию Re: Natasha Bedingfield - Pocketful Of Sunshine

Послушал трек из youtube предпрослшки. Класс.
Качаю.)
__________________
I love the music
FAQ по форуму
Правила форума
Жизнь человека - это не самое главное в его жизни...

Вверх
Пользователь сказал cпасибо:
sergych (30.09.2017)
Похожие темы
Тема Автор Раздел Ответов Последнее сообщение
Релиз Natasha Bedingfield - Strip Me Away PUPOKIN Зарубежная Поп-Музыка 0 15.05.2011 09:22
Альбом Natasha Miller - I Had A Feelin PUPOKIN Jazz и Blues 1 29.03.2010 21:35
Альбом Natasha Bedingfield - Pocketful Of Sunshine PUPOKIN Зарубежная Поп-Музыка 0 24.12.2008 09:57
Natasha St-Pier - Embrasse Moi PUPOKIN Зарубежная Поп-Музыка 0 29.11.2008 14:54
Natasha Rostova PUPOKIN House 0 13.10.2008 11:10


Метки
2008 , hip hop , natasha bedingfield , pocketful of sunshine , pop , r&b , soul

Опции темы

Ваши права в разделе
Вы не можете создавать новые темы
Вы не можете отвечать в темах
Вы не можете прикреплять вложения
Вы не можете редактировать свои сообщения

Быстрый переход



Текущее время: 03:47. Часовой пояс GMT +3.
Powered by vBulletin® Version 3.8.7
Copyright ©2000 - 2017, vBulletin Solutions, Inc. Перевод: zCarot
© 2008 - 2017 Taifun With Song
Яндекс.Метрика