TAIFUN With Song
А знаете ли Вы, что...
Какой рок-вокалист ещё в школьные годы откусил себе кусочек языка?
«Характерному тембру своего голоса солист Rolling Stones Мик Джаггер отчасти обязан баскетболу, которым он увлекался в школе. На одном из матчей Мик с такой силой врезался в соперника, что откусил себе кусочек языка. После этого он не говорил неделю, а когда заговорил, то понял, что голос изменился.»
 
Опции темы

  #1
Старый 04.02.2017, 17:40
sergych
Координатор
Досье
 
Аватар для sergych
Релиз Rod Stewart - Human


2001 - Rod Stewart - Human




Исполнитель/Artist: Rod Stewart
Альбом/Album: Human
Год/Year: 2001
Жанр/Genre: pop, pop rock
Страна/Country: Соединённые Штаты
Рекорд-лейбл/Record label: Atlantic
Номер в каталоге/Catalogue #: Atlantic 83411-2
Формат/Format: Free Lossless Audio Codec (*.flac)
Качество/Quality: Lossless
Тип рипа/RIP Type: image+.cue
Продолжительность/Length: 00:45:26
Источник/Source: Собственный рип
Размер/Size: 410 MB

Сканы в комплекте

Треклист

01. Human [0:03:48.05]
02. Smitten [0:05:00.30]
03. Don't Come Around Here (With Helicopter Girl) [0:03:49.23]
04. Soul On Soul [0:04:30.45]
05. Loveless [0:04:00.05]
06. If I Had You [0:04:18.22]
07. Charlie Parker Loves Me [0:04:41.08]
08. It Was Love That We Needed [0:04:11.42]
09. To Be With You [0:03:56.03]
10. Run Back Into Yours Arms [0:03:26.27]
11. I Can't Deny It [0:03:44.03]
[свернуть]

youtube.com

[свернуть]

Исполнители/Performers

Rod Stewart – lead vocals
Helicopter Girl – lead vocals on "Don't Come Around Here"
Jesse Johnson, Mark Knopfler, Robbie McIntosh, Slash – guitar
Pino Palladino – bass guitar
Chris Pelcer, Steve Pigott – keyboards
Sue Anne Carwell, Karl Carwell, Yvonne Williams, Alexandra Brown, Jeff Poseto, Jackie Sinley-Stevens, Connor Reeves – backing vocals
[свернуть]

EAC лог

Exact Audio Copy V1.2 from 12. August 2016

EAC extraction logfile from 26. February 2017, 1:15

Rod Stewart / Human

Used drive : PLEXTOR DVDR PX-716A Adapter: 1 ID: 0

Read mode : Secure
Utilize accurate stream : Yes
Defeat audio cache : Yes
Make use of C2 pointers : No

Read offset correction : 30
Overread into Lead-In and Lead-Out : No
Fill up missing offset samples with silence : Yes
Delete leading and trailing silent blocks : No
Null samples used in CRC calculations : Yes
Used interface : Native Win32 interface for Win NT & 2000

Used output format : User Defined Encoder
Selected bitrate : 1024 kBit/s
Quality : High
Add ID3 tag : No
Command line compressor : C:\Program Files (x86)\Exact Audio Copy\FLAC\FLAC.EXE
Additional command line options : -6 -V -T "ARTIST=%artist%" -T "TITLE=%title%" -T "ALBUM=%albumtitle%" -T "DATE=%year%" -T "TRACKNUMBER=%tracknr%" -T "GENRE=%genre%" -T "COMMENT=%comment%" -T "BAND=%albuminterpret%" -T "ALBUMARTIST=%albuminterpret%" -T "COMPOSER=%composer%" %haslyrics%--tag-from-file=LYRICS="%lyricsfile%"%haslyrics% -T "DISCNUMBER=%cdnumber%" -T "TOTALDISCS=%totalcds%" -T "TOTALTRACKS=%numtracks%" %hascover%--picture="%coverfile%"%hascover% %source% -o %dest%


TOC of the extracted CD

Track | Start | Length | Start sector | End sector
---------------------------------------------------------
1 | 0:00.32 | 3:48.05 | 32 | 17136
2 | 3:48.37 | 5:00.30 | 17137 | 39666
3 | 8:48.67 | 3:49.23 | 39667 | 56864
4 | 12:38.15 | 4:30.45 | 56865 | 77159
5 | 17:08.60 | 4:00.05 | 77160 | 95164
6 | 21:08.65 | 4:18.22 | 95165 | 114536
7 | 25:27.12 | 4:41.08 | 114537 | 135619
8 | 30:08.20 | 4:11.42 | 135620 | 154486
9 | 34:19.62 | 3:56.03 | 154487 | 172189
10 | 38:15.65 | 3:26.27 | 172190 | 187666
11 | 41:42.17 | 3:44.03 | 187667 | 204469


Range status and errors

Selected range

Filename C:\mm\Rod Stewart\2001 - Human [Atlantic 83411-2]\Rod Stewart - Human.wav

Peak level 99.8 %
Extraction speed 12.0 X
Range quality 100.0 %
Test CRC 31C136D1
Copy CRC 31C136D1
Copy OK

No errors occurred


AccurateRip summary

Track 1 accurately ripped (confidence 23) [D505DBD6] (AR v2)
Track 2 accurately ripped (confidence 24) [DE3B26EA] (AR v2)
Track 3 accurately ripped (confidence 24) [1AABA70A] (AR v2)
Track 4 accurately ripped (confidence 24) [35D0CA5B] (AR v2)
Track 5 accurately ripped (confidence 24) [EFAD157C] (AR v2)
Track 6 accurately ripped (confidence 25) [EE5028A4] (AR v2)
Track 7 accurately ripped (confidence 23) [06F5083F] (AR v2)
Track 8 accurately ripped (confidence 24) [1680DC34] (AR v2)
Track 9 accurately ripped (confidence 24) [BEA72204] (AR v2)
Track 10 accurately ripped (confidence 23) [76862698] (AR v2)
Track 11 accurately ripped (confidence 24) [97A20D1A] (AR v2)

All tracks accurately ripped

End of status report

---- CUETools DB Plugin V2.1.6

[CTDB TOCID: YQlTRaN2VWtnBmVMUDaxU04Y7tQ-] found
Submit result: already submitted
Track | CTDB Status
1 | (19/19) Accurately ripped
2 | (18/19) Accurately ripped
3 | (18/19) Accurately ripped
4 | (18/19) Accurately ripped
5 | (18/19) Accurately ripped
6 | (18/19) Accurately ripped
7 | (18/19) Accurately ripped
8 | (18/19) Accurately ripped
9 | (18/19) Accurately ripped
10 | (18/19) Accurately ripped
11 | (18/19) Accurately ripped
[свернуть]

Файл CUE

REM GENRE Rock
REM DATE 2001
REM DISCID 6D0AA60B
REM COMMENT "ExactAudioCopy v1.2"
PERFORMER "Rod Stewart"
TITLE "Human"
REM COMPOSER ""
FILE "Rod Stewart - Human.flac" WAVE
TRACK 01 AUDIO
TITLE "Human"
PERFORMER "Rod Stewart"
REM COMPOSER ""
INDEX 00 00:00:00
INDEX 01 00:00:32
TRACK 02 AUDIO
TITLE "Smitten"
PERFORMER "Rod Stewart"
REM COMPOSER ""
INDEX 01 03:48:37
TRACK 03 AUDIO
TITLE "Don't Come Around Here (With Helicopter Girl)"
PERFORMER "Rod Stewart"
REM COMPOSER ""
INDEX 01 08:48:67
TRACK 04 AUDIO
TITLE "Soul On Soul"
PERFORMER "Rod Stewart"
REM COMPOSER ""
INDEX 01 12:38:15
TRACK 05 AUDIO
TITLE "Loveless"
PERFORMER "Rod Stewart"
REM COMPOSER ""
INDEX 01 17:08:60
TRACK 06 AUDIO
TITLE "If I Had You"
PERFORMER "Rod Stewart"
REM COMPOSER ""
INDEX 01 21:08:65
TRACK 07 AUDIO
TITLE "Charlie Parker Loves Me"
PERFORMER "Rod Stewart"
REM COMPOSER ""
INDEX 01 25:27:12
TRACK 08 AUDIO
TITLE "It Was Love That We Needed"
PERFORMER "Rod Stewart"
REM COMPOSER ""
INDEX 01 30:08:20
TRACK 09 AUDIO
TITLE "To Be With You"
PERFORMER "Rod Stewart"
REM COMPOSER ""
INDEX 01 34:19:62
TRACK 10 AUDIO
TITLE "Run Back Into Yours Arms"
PERFORMER "Rod Stewart"
REM COMPOSER ""
INDEX 01 38:15:65
TRACK 11 AUDIO
TITLE "I Can't Deny It"
PERFORMER "Rod Stewart"
REM COMPOSER ""
INDEX 01 41:42:17
[свернуть]

Лог проверки качества

AUDIOCHECKER v2.0 beta (build 457) - by Dester -
~~~~~~~~~~~~~~~~~~~~~~~~~~~~~~~~~~
-=== НЕ РЕДАКТИРУЙТЕ ЭТОТ ФАЙЛ! ===-

Путь: ...\2001 - Human [Atlantic 83411-2]

1 -=- Rod Stewart - Human.flac -=- CDDA (99%)

249481572
[свернуть]

Спектр частот

[свернуть]

Скачать Rod Stewart - Human



password: sergych
[свернуть]

Контрольная сумма (хеш-сумма) архива

MD5: 3821e513899cb877c4d29b0d28b64e64
[свернуть]
My opinion of release: 10/10
__________________
TAIFUN.Wings of Soul


Последний раз редактировалось sergych, 07.10.2017 в 23:52. Причина: замена пиратки нормальным изданием
Вверх
Пользователь сказал cпасибо:
swint68 (04.02.2017)
  #2
Старый 07.10.2017, 23:52
sergych
Координатор
Досье
 
Аватар для sergych
По умолчанию Re: Rod Stewart - Human

заменил пиратку нормальным изданием
__________________
TAIFUN.Wings of Soul

Вверх
Пользователь сказал cпасибо:
swint68 (08.10.2017)
Похожие темы
Тема Автор Раздел Ответов Последнее сообщение
Альбом Rod Stewart - Blondes Have More Fun sergych Pop Rock 0 14.01.2017 11:39
Сборник Rod Stewart - Reason To Believe sergych Pop Rock 0 09.02.2016 06:21
Альбом Rod Stewart - Soulbook sergych Pop Rock 0 28.11.2015 16:00
Альбом Rod Stewart - Time aheron Pop Rock 0 03.06.2013 13:59
Альбом Eric Stewart - Do Not Bend sergych Pop Rock 0 19.05.2012 08:27


Метки
2001 , human , pop , pop rock , rod stewart

Опции темы

Ваши права в разделе
Вы не можете создавать новые темы
Вы не можете отвечать в темах
Вы не можете прикреплять вложения
Вы не можете редактировать свои сообщения

Быстрый переход



Текущее время: 03:47. Часовой пояс GMT +3.
Powered by vBulletin® Version 3.8.7
Copyright ©2000 - 2017, vBulletin Solutions, Inc. Перевод: zCarot
© 2008 - 2017 Taifun With Song
Яндекс.Метрика