TAIFUN With Song
Вернуться   TAIFUN With Song > Music (обменник) > Rock > Soft Rock
Расширенный поиск
Soft Rock Это музыкальный стиль, который использует технику рок-н-ролла чтобы достичь более мягкого, более приятного для слуха звука, чтобы такую музыку было приятно слушать, например, на работе или за рулем. Soft rock всегда поется с высокими голосами, если певец мужчина, то он будет петь фальцетом, слова soft rock’а всегда сфокусированы на приятные темы, такие, как любовь, ежедневная жизнь и дружба.

А знаете ли Вы, что...
Какая песня группы «Ария» одноимённа девизу итальянских фашистов?
«"Воля и разум" — это девиз итальянских фашистов. Авторы одноимённой песни группы "Ария" об этом не знали, равно как не знали и члены худсовета, одобрившие запись песни для пластинки.»
 
Опции темы

  #1
Старый 05.03.2016, 17:15
sergych
Координатор
Досье
 
Аватар для sergych
Релиз Cyndi Lauper - Twelve Deadly Cyns... And Then Some


1994 - Cyndi Lauper - Twelve Deadly Cyns... And Then Some




Исполнитель/Artist: Cyndi Lauper
Альбом/Album: Twelve Deadly Cyns... And Then Some
Год/Year: 1994
Жанр/Genre: soft rock, pop
Страна/Country: Австрия
Рекорд-лейбл/Record label: Epic Records / Sony Music
Номер в каталоге/Catalogue #: 477363 2
Формат/Format: Free Lossless Audio Codec (*.flac)
Качество/Quality: Lossless
Тип рипа/RIP Type: image+.cue
Продолжительность/Length: 01:06:53
Источник/Source: Собственный рип
Размер/Size: 593.3 MB

Сканы в комплекте

Треклист

01. I'm Gonna Be Strong [0:03:50.20]
02. Girls Just Want To Have Fun [0:03:55.67]
03. Money Changes Everything [0:05:03.23]
04. Time After Time [0:04:01.12]
05. She Bop [0:03:43.48]
06. All Through The Night [0:04:29.47]
07. Change Of Heart [0:04:24.10]
08. True Colors [0:03:47.13]
09. What's Going On [0:03:51.22]
10. I Drove All Night [0:04:12.68]
11. The World Is Stone [0:04:25.45]
12. Who Let In The Rain [0:04:35.12]
13. That's What I Think [0:04:18.60]
14. Sally's Pigeons [0:03:46.00]
15. Hey Now (Girls Just Want To Have Fun) [0:03:51.48]
16. Come On Home [0:04:36.02]
[свернуть]

youtube.com

[свернуть]

EAC лог

Exact Audio Copy V1.1 from 23. June 2015

EAC extraction logfile from 1. March 2016, 8:01

Cyndi Lauper / Twelve Deadly Cyns... And Then Some

Used drive : ATAPI iHAS124 D Adapter: 0 ID: 2

Read mode : Secure
Utilize accurate stream : Yes
Defeat audio cache : Yes
Make use of C2 pointers : No

Read offset correction : 6
Overread into Lead-In and Lead-Out : No
Fill up missing offset samples with silence : Yes
Delete leading and trailing silent blocks : No
Null samples used in CRC calculations : Yes
Used interface : Installed external ASPI interface

Used output format : User Defined Encoder
Selected bitrate : 1024 kBit/s
Quality : High
Add ID3 tag : Yes
Command line compressor : C:\Program Files (x86)\Exact Audio Copy\Flac\flac.exe
Additional command line options : -6 -V -T "ARTIST=%artist%" -T "TITLE=%title%" -T "ALBUM=%albumtitle%" -T "DATE=%year%" -T "TRACKNUMBER=%tracknr%" -T "GENRE=%genre%" -T "COMMENT=%comment%" -T "BAND=%albuminterpret%" -T "COMPOSER=%composer%" %haslyrics%--tag-from-file=LYRICS="%lyricsfile%"%haslyrics% -T "DISCNUMBER=%cdnumber%" -T "TOTALDISCS=%totalcds%" -T "TOTALTRACKS=%numtracks%" %hascover%--picture="%coverfile%"%hascover% %source% -o %dest%


TOC of the extracted CD

Track | Start | Length | Start sector | End sector
---------------------------------------------------------
1 | 0:00.00 | 3:50.20 | 0 | 17269
2 | 3:50.20 | 3:55.67 | 17270 | 34961
3 | 7:46.12 | 5:03.23 | 34962 | 57709
4 | 12:49.35 | 4:01.12 | 57710 | 75796
5 | 16:50.47 | 3:43.48 | 75797 | 92569
6 | 20:34.20 | 4:29.47 | 92570 | 112791
7 | 25:03.67 | 4:24.10 | 112792 | 132601
8 | 29:28.02 | 3:47.13 | 132602 | 149639
9 | 33:15.15 | 3:51.22 | 149640 | 166986
10 | 37:06.37 | 4:12.68 | 166987 | 185954
11 | 41:19.30 | 4:25.45 | 185955 | 205874
12 | 45:45.00 | 4:35.12 | 205875 | 226511
13 | 50:20.12 | 4:18.60 | 226512 | 245921
14 | 54:38.72 | 3:46.00 | 245922 | 262871
15 | 58:24.72 | 3:51.48 | 262872 | 280244
16 | 62:16.45 | 4:36.02 | 280245 | 300946


Range status and errors

Selected range

Filename C:\mm\Cyndi Lauper\1994 - Twelve Deadly Cyns... And Then Some [477363 2]\Cyndi Lauper - Twelve Deadly Cyns... And Then Some.wav

Peak level 97.7 %
Extraction speed 9.7 X
Range quality 100.0 %
Test CRC F7B3B36C
Copy CRC F7B3B36C
Copy OK

No errors occurred


AccurateRip summary

Track 1 accurately ripped (confidence 148) [045FA5A9] (AR v2)
Track 2 accurately ripped (confidence 149) [AC520589] (AR v2)
Track 3 accurately ripped (confidence 148) [B1D0EA6A] (AR v2)
Track 4 accurately ripped (confidence 150) [650A7CAF] (AR v2)
Track 5 accurately ripped (confidence 149) [DCDD781A] (AR v2)
Track 6 accurately ripped (confidence 149) [0BFC3435] (AR v2)
Track 7 accurately ripped (confidence 148) [F56F1DC9] (AR v2)
Track 8 accurately ripped (confidence 149) [653598FB] (AR v2)
Track 9 accurately ripped (confidence 149) [74F864A0] (AR v2)
Track 10 accurately ripped (confidence 147) [8B0B318C] (AR v2)
Track 11 accurately ripped (confidence 148) [C5E902B8] (AR v2)
Track 12 accurately ripped (confidence 148) [BDEBD86C] (AR v2)
Track 13 accurately ripped (confidence 147) [F5EC0B2E] (AR v2)
Track 14 accurately ripped (confidence 148) [60FD6A62] (AR v2)
Track 15 accurately ripped (confidence 148) [363688D4] (AR v2)
Track 16 accurately ripped (confidence 146) [CC4EC98D] (AR v2)

All tracks accurately ripped

End of status report
[свернуть]

Файл CUE

REM GENRE Pop
REM DATE 1994
REM DISCID D60FAC10
REM COMMENT "ExactAudioCopy v1.1"
PERFORMER "Cyndi Lauper"
TITLE "Twelve Deadly Cyns... And Then Some"
FILE "Cyndi Lauper - Twelve Deadly Cyns... And Then Some.flac" WAVE
TRACK 01 AUDIO
TITLE "I'm Gonna Be Strong"
PERFORMER "Cyndi Lauper"
INDEX 01 00:00:00
TRACK 02 AUDIO
TITLE "Girls Just Want To Have Fun"
PERFORMER "Cyndi Lauper"
INDEX 01 03:50:20
TRACK 03 AUDIO
TITLE "Money Changes Everything"
PERFORMER "Cyndi Lauper"
INDEX 00 07:45:70
INDEX 01 07:46:12
TRACK 04 AUDIO
TITLE "Time After Time"
PERFORMER "Cyndi Lauper"
INDEX 00 12:49:32
INDEX 01 12:49:35
TRACK 05 AUDIO
TITLE "She Bop"
PERFORMER "Cyndi Lauper"
INDEX 00 16:50:35
INDEX 01 16:50:47
TRACK 06 AUDIO
TITLE "All Through The Night"
PERFORMER "Cyndi Lauper"
INDEX 00 20:34:02
INDEX 01 20:34:20
TRACK 07 AUDIO
TITLE "Change Of Heart"
PERFORMER "Cyndi Lauper"
INDEX 00 25:03:47
INDEX 01 25:03:67
TRACK 08 AUDIO
TITLE "True Colors"
PERFORMER "Cyndi Lauper"
INDEX 00 29:27:02
INDEX 01 29:28:02
TRACK 09 AUDIO
TITLE "What's Going On"
PERFORMER "Cyndi Lauper"
INDEX 01 33:15:15
TRACK 10 AUDIO
TITLE "I Drove All Night"
PERFORMER "Cyndi Lauper"
INDEX 00 37:05:32
INDEX 01 37:06:37
TRACK 11 AUDIO
TITLE "The World Is Stone"
PERFORMER "Cyndi Lauper"
INDEX 00 41:18:35
INDEX 01 41:19:30
TRACK 12 AUDIO
TITLE "Who Let In The Rain"
PERFORMER "Cyndi Lauper"
INDEX 00 45:44:12
INDEX 01 45:45:00
TRACK 13 AUDIO
TITLE "That's What I Think"
PERFORMER "Cyndi Lauper"
INDEX 01 50:20:12
TRACK 14 AUDIO
TITLE "Sally's Pigeons"
PERFORMER "Cyndi Lauper"
INDEX 00 54:37:72
INDEX 01 54:38:72
TRACK 15 AUDIO
TITLE "Hey Now (Girls Just Want To Have Fun)"
PERFORMER "Cyndi Lauper"
INDEX 01 58:24:72
TRACK 16 AUDIO
TITLE "Come On Home"
PERFORMER "Cyndi Lauper"
INDEX 01 62:16:45
[свернуть]

Лог проверки качества

AUDIOCHECKER v2.0 beta (build 457) - by Dester -
~~~~~~~~~~~~~~~~~~~~~~~~~~~~~~~~~~
-=== НЕ РЕДАКТИРУЙТЕ ЭТОТ ФАЙЛ! ===-

Путь: ...\1994 - Twelve Deadly Cyns... And Then Some [477363 2]

1 -=- Cyndi Lauper - Twelve Deadly Cyns... And Then Some.flac -=- CDDA (100%)

253949524
[свернуть]

Спектр частот

[свернуть]

Скачать Cyndi Lauper - Twelve Deadly Cyns... And Then Some



password: sergych
[свернуть]
My opinion of release: 10/10
__________________
TAIFUN.Wings of Soul

Вверх
Пользователь сказал cпасибо:
Chert (13.03.2016)
  #2
Старый 07.10.2017, 13:27
sergych
Координатор
Досье
 
Аватар для sergych
Релиз Re: Cyndi Lauper - Twelve Deadly Cyns... And Then Some


1994 - Cyndi Lauper - Twelve Deadly Cyns... And Then Some




Исполнитель/Artist: Cyndi Lauper
Альбом/Album: Twelve Deadly Cyns... And Then Some
Год/Year: 1994
Жанр/Genre: soft rock, pop
Страна/Country: Япония
Рекорд-лейбл/Record label: Epic / Sony Records
Номер в каталоге/Catalogue #: ESCA 6041
Формат/Format: Free Lossless Audio Codec (*.flac)
Качество/Quality: Lossless
Тип рипа/RIP Type: image+.cue
Продолжительность/Length: 01:10:55
Источник/Source: Собственный рип
Размер/Size: 544.2 MB

Сканы в комплекте

Треклист

01. I'm Gonna Be Strong [0:03:50.30]
02. Girls Just Want To Have Fun [0:03:55.70]
03. Money Changes Everything [0:05:03.15]
04. Time After Time [0:04:01.20]
05. She Bop [0:03:43.47]
06. All Through The Night [0:04:29.45]
07. Change Of Heart [0:04:24.13]
08. True Colors [0:03:47.12]
09. What's Going On [0:03:51.23]
10. I Drove All Night [0:04:12.65]
11. The World Is Stone [0:04:25.50]
12. Who Let In The Rain [0:04:35.00]
13. That's What I Think [0:04:18.70]
14. Sally's Pigeons [0:03:45.62]
15. Hey Now (Girls Just Want To Have Fun) [0:03:51.58]
16. Come On Home [0:04:37.47]
17. Hole In My Heart (All The Way To China) [0:04:00.50]
[свернуть]

youtube.com

[свернуть]

EAC лог

Exact Audio Copy V1.3 from 2. September 2016

EAC extraction logfile from 12. August 2017, 9:45

Cyndi Lauper / Twelve Deadly Cyns...And Then Some

Used drive : PLEXTOR DVDR PX-716A Adapter: 1 ID: 0

Read mode : Secure
Utilize accurate stream : Yes
Defeat audio cache : Yes
Make use of C2 pointers : No

Read offset correction : 30
Overread into Lead-In and Lead-Out : No
Fill up missing offset samples with silence : Yes
Delete leading and trailing silent blocks : No
Null samples used in CRC calculations : Yes
Used interface : Installed external ASPI interface

Used output format : User Defined Encoder
Selected bitrate : 1024 kBit/s
Quality : High
Add ID3 tag : No
Command line compressor : C:\Program Files (x86)\Exact Audio Copy\Flac\flac.exe
Additional command line options : -6 -V -T "ARTIST=%artist%" -T "TITLE=%title%" -T "ALBUM=%albumtitle%" -T "DATE=%year%" -T "TRACKNUMBER=%tracknr%" -T "GENRE=%genre%" -T "COMMENT=%comment%" -T "BAND=%albuminterpret%" -T "ALBUMARTIST=%albuminterpret%" -T "COMPOSER=%composer%" %haslyrics%--tag-from-file=LYRICS="%lyricsfile%"%haslyrics% -T "DISCNUMBER=%cdnumber%" -T "TOTALDISCS=%totalcds%" -T "TOTALTRACKS=%numtracks%" %hascover%--picture="%coverfile%"%hascover% %source% -o %dest%


TOC of the extracted CD

Track | Start | Length | Start sector | End sector
---------------------------------------------------------
1 | 0:00.00 | 3:50.30 | 0 | 17279
2 | 3:50.30 | 3:55.70 | 17280 | 34974
3 | 7:46.25 | 5:03.15 | 34975 | 57714
4 | 12:49.40 | 4:01.20 | 57715 | 75809
5 | 16:50.60 | 3:43.47 | 75810 | 92581
6 | 20:34.32 | 4:29.45 | 92582 | 112801
7 | 25:04.02 | 4:24.13 | 112802 | 132614
8 | 29:28.15 | 3:47.12 | 132615 | 149651
9 | 33:15.27 | 3:51.23 | 149652 | 166999
10 | 37:06.50 | 4:12.65 | 167000 | 185964
11 | 41:19.40 | 4:25.50 | 185965 | 205889
12 | 45:45.15 | 4:35.00 | 205890 | 226514
13 | 50:20.15 | 4:18.70 | 226515 | 245934
14 | 54:39.10 | 3:45.62 | 245935 | 262871
15 | 58:24.72 | 3:51.58 | 262872 | 280254
16 | 62:16.55 | 4:37.47 | 280255 | 301076
17 | 66:54.27 | 4:00.50 | 301077 | 319126


Range status and errors

Selected range

Filename C:\mm\Cyndi Lauper\1994 - Twelve Deadly Cyns... And Then Some [ESCA 6041]\Cyndi Lauper - Twelve Deadly Cyns...And Then Some.wav

Peak level 100.0 %
Extraction speed 11.3 X
Range quality 100.0 %
Test CRC 7EC79DAB
Copy CRC 7EC79DAB
Copy OK

No errors occurred

End of status report

---- CUETools DB Plugin V2.1.6

[CTDB TOCID: cDy9tXd8vkT1qMkDxxeTw3avwRE-] found
Submit result: cDy9tXd8vkT1qMkDxxeTw3avwRE- has been confirmed
Track | CTDB Status
1 | (154/157) Accurately ripped
2 | (152/157) Accurately ripped
3 | (153/157) Accurately ripped
4 | (154/157) Accurately ripped
5 | (151/157) Accurately ripped
6 | (154/157) Accurately ripped
7 | (152/157) Accurately ripped
8 | (150/157) Accurately ripped
9 | (153/157) Accurately ripped
10 | (155/157) Accurately ripped
11 | (155/157) Accurately ripped
12 | (154/157) Accurately ripped
13 | (153/157) Accurately ripped
14 | (154/157) Accurately ripped
15 | (154/157) Accurately ripped
16 | (153/157) Accurately ripped
17 | (151/157) Accurately ripped
[свернуть]

Файл CUE

REM GENRE Pop
REM DATE 1994
REM DISCID E3109F11
REM COMMENT "ExactAudioCopy v1.3"
PERFORMER "Cyndi Lauper"
TITLE "Twelve Deadly Cyns...And Then Some"
REM COMPOSER ""
FILE "Cyndi Lauper - Twelve Deadly Cyns...And Then Some.flac" WAVE
TRACK 01 AUDIO
TITLE "I'm Gonna Be Strong"
PERFORMER "Cyndi Lauper"
REM COMPOSER ""
INDEX 01 00:00:00
TRACK 02 AUDIO
TITLE "Girls Just Want To Have Fun"
PERFORMER "Cyndi Lauper"
REM COMPOSER ""
INDEX 01 03:50:30
TRACK 03 AUDIO
TITLE "Money Changes Everything"
PERFORMER "Cyndi Lauper"
REM COMPOSER ""
INDEX 01 07:46:25
TRACK 04 AUDIO
TITLE "Time After Time"
PERFORMER "Cyndi Lauper"
REM COMPOSER ""
INDEX 01 12:49:40
TRACK 05 AUDIO
TITLE "She Bop"
PERFORMER "Cyndi Lauper"
REM COMPOSER ""
INDEX 01 16:50:60
TRACK 06 AUDIO
TITLE "All Through The Night"
PERFORMER "Cyndi Lauper"
REM COMPOSER ""
INDEX 01 20:34:32
TRACK 07 AUDIO
TITLE "Change Of Heart"
PERFORMER "Cyndi Lauper"
REM COMPOSER ""
INDEX 01 25:04:02
TRACK 08 AUDIO
TITLE "True Colors"
PERFORMER "Cyndi Lauper"
REM COMPOSER ""
INDEX 01 29:28:15
TRACK 09 AUDIO
TITLE "What's Going On"
PERFORMER "Cyndi Lauper"
REM COMPOSER ""
INDEX 01 33:15:27
TRACK 10 AUDIO
TITLE "I Drove All Night"
PERFORMER "Cyndi Lauper"
REM COMPOSER ""
INDEX 01 37:06:50
TRACK 11 AUDIO
TITLE "The World Is Stone"
PERFORMER "Cyndi Lauper"
REM COMPOSER ""
INDEX 01 41:19:40
TRACK 12 AUDIO
TITLE "Who Let In The Rain"
PERFORMER "Cyndi Lauper"
REM COMPOSER ""
INDEX 01 45:45:15
TRACK 13 AUDIO
TITLE "That's What I Think"
PERFORMER "Cyndi Lauper"
REM COMPOSER ""
INDEX 01 50:20:15
TRACK 14 AUDIO
TITLE "Sally's Pigeons"
PERFORMER "Cyndi Lauper"
REM COMPOSER ""
INDEX 01 54:39:10
TRACK 15 AUDIO
TITLE "Hey Now (Girls Just Want To Have Fun)"
PERFORMER "Cyndi Lauper"
REM COMPOSER ""
INDEX 01 58:24:72
TRACK 16 AUDIO
TITLE "Come On Home"
PERFORMER "Cyndi Lauper"
REM COMPOSER ""
INDEX 01 62:16:55
TRACK 17 AUDIO
TITLE "Hole In My Heart (All The Way To China)"
PERFORMER "Cyndi Lauper"
REM COMPOSER ""
INDEX 01 66:54:27
[свернуть]

Лог проверки качества

AUDIOCHECKER v2.0 beta (build 457) - by Dester -
~~~~~~~~~~~~~~~~~~~~~~~~~~~~~~~~~~
-=== НЕ РЕДАКТИРУЙТЕ ЭТОТ ФАЙЛ! ===-

Путь: ...\1994 - Twelve Deadly Cyns... And Then Some [ESCA 6041]

1 -=- Cyndi Lauper - Twelve Deadly Cyns...And Then Some.flac -=- CDDA (100%)

127233684
[свернуть]

Спектр частот

[свернуть]

Скачать Cyndi Lauper - Twelve Deadly Cyns... And Then Some



password: sergych
[свернуть]

Контрольная сумма (хеш-сумма) архива

MD5: d1c2d57b1431a3f2a2c14e2113df9d20
[свернуть]
My opinion of release: 10/10
__________________
TAIFUN.Wings of Soul

Вверх
2 пользователя(ей) сказали cпасибо:
johnsilver (07.10.2017), swint68 (08.10.2017)
Похожие темы
Тема Автор Раздел Ответов Последнее сообщение
Сборник Cyndi Lauper - Playlist: The Very Best of Cyndi Lauper sergych Soft Rock 1 18.03.2016 20:24
Сборник Cyndi Lauper - True Colors: The Best of Cyndi Lauper sergych Soft Rock 1 19.02.2016 06:43
Сборник Cyndi Lauper - The Essential. Cyndi Lauper sergych Soft Rock 0 10.11.2013 14:40
Cyndi Lauper sergych Rock [FAQ] 0 13.06.2008 18:50


Метки
1994 , cyndi lauper , pop , soft rock , twelve deadly cyns... and then some

Опции темы

Ваши права в разделе
Вы не можете создавать новые темы
Вы не можете отвечать в темах
Вы не можете прикреплять вложения
Вы не можете редактировать свои сообщения

Быстрый переход



Текущее время: 03:46. Часовой пояс GMT +3.
Powered by vBulletin® Version 3.8.7
Copyright ©2000 - 2017, vBulletin Solutions, Inc. Перевод: zCarot
© 2008 - 2017 Taifun With Song
Яндекс.Метрика